<?xml version="1.0" standalone="no"?>
<!DOCTYPE svg PUBLIC "-//W3C//DTD SVG 1.1//EN" "http://www.w3.org/Graphics/SVG/1.1/DTD/svg11.dtd" >
<svg xmlns="http://www.w3.org/2000/svg" xmlns:xlink="http://www.w3.org/1999/xlink" version="1.1">
<metadata>
Created by FontForge 20170731 at Tue Apr 11 12:15:24 2000
 By Aleksey,,,
Copyright (c) 1991 Adobe Systems Incorporated.  All Rights Reserved.Arial is a registered trademark of The Monotype Corporation plc.
</metadata>
<defs>
<font id="ArialRoundedMT" horiz-adv-x="563" >
  <font-face 
    font-family="Arial Rounded MT"
    font-weight="400"
    font-stretch="normal"
    units-per-em="1000"
    panose-1="2 0 5 6 5 0 0 2 0 4"
    ascent="800"
    descent="-200"
    x-height="518"
    cap-height="728"
    bbox="-180 -223 1039 936"
    underline-thickness="50"
    underline-position="-175"
    unicode-range="U+0020-FB02"
  />
<missing-glyph horiz-adv-x="282" 
 />
    <glyph glyph-name=".notdef" horiz-adv-x="282" 
 />
    <glyph glyph-name=".null" horiz-adv-x="0" 
 />
    <glyph glyph-name="nonmarkingreturn" horiz-adv-x="500" 
 />
    <glyph glyph-name="space" unicode=" " horiz-adv-x="282" 
 />
    <glyph glyph-name="space" unicode="&#xa0;" horiz-adv-x="282" 
 />
    <glyph glyph-name="exclam" unicode="!" horiz-adv-x="333" 
d="M133 260q1 -23 6 -42.5t28 -19.5q11 0 17.5 5.5t9.5 14t4 19.5t2 23l15 291q0 8 0.5 27t0.5 41t-0.5 41t-1.5 27q-3 13 -8.5 21t-12.5 12.5t-14.5 6t-12.5 1.5t-12 -1.5t-14 -6t-12.5 -12.5t-8.5 -21q-2 -8 -2 -27v-40q0 -21 0.5 -40.5t0.5 -28.5zM166 98q-23 0 -39 -16
t-16 -39t16 -39t39 -16t39 16t16 39t-16 39t-39 16z" />
    <glyph glyph-name="quotedbl" unicode="&#x22;" horiz-adv-x="354" 
d="M70 462h54l22 137v117h-100v-117zM232 462h53l23 137v117h-100v-117z" />
    <glyph glyph-name="numbersign" unicode="#" horiz-adv-x="552" 
d="M93 196l-32 -154q-3 -13 -3.5 -17t-0.5 -9q0 -9 7 -18.5t27 -9.5q25 0 30.5 9.5t10.5 32.5l34 166h154l-32 -154q-3 -13 -3.5 -17t-0.5 -9q0 -9 7 -18.5t27 -9.5q25 0 31 9.5t11 32.5l33 166h102q23 0 36 5t13 34q0 25 -14.5 28.5t-34.5 3.5h-87l36 180h51q23 0 36 4.5
t13 33.5q0 25 -14.5 29t-34.5 4h-36l31 156q2 12 3.5 16.5t1.5 9.5q0 9 -7 18.5t-27 9.5q-25 0 -31 -9.5t-11 -33.5l-34 -167h-153l31 156q2 12 3 16.5t1 9.5q0 9 -7 18.5t-27 9.5q-24 0 -30 -9.5t-11 -33.5l-34 -167h-99q-23 0 -36 -5t-13 -33q0 -13 4 -19.5t10.5 -9.5
t15.5 -3.5t19 -0.5h85l-37 -180h-48q-12 0 -21 -0.5t-15 -4t-9.5 -11t-3.5 -21.5q0 -13 4 -20t10.5 -10t15.5 -3.5t19 -0.5h34zM217 447h154l-37 -180h-153z" />
    <glyph glyph-name="dollar" unicode="$" 
d="M306 657q24 -3 40.5 -12t28.5 -22.5t20 -29.5t15 -32q5 -13 13.5 -25t28.5 -12q21 0 31.5 14t10.5 25q0 20 -12.5 47.5t-32.5 50.5q-18 20 -37.5 32.5t-38.5 19.5t-36.5 9.5t-30.5 4.5v53q0 3 -0.5 9.5t-2.5 12.5t-7.5 10.5t-14.5 4.5q-18 0 -22 -14.5t-4 -23.5v-52
q-21 -2 -55 -8.5t-71 -31.5q-28 -19 -52 -57.5t-24 -96.5q0 -15 3 -35.5t11.5 -41.5t24 -41t41.5 -35q14 -8 31 -15t34 -13t32 -10t25 -7v-278q-31 4 -53 16t-37 29t-25 39.5t-18 48.5q-3 10 -11 23.5t-31 13.5q-15 0 -28.5 -11.5t-13.5 -30.5q0 -21 10.5 -53t35.5 -63
t67 -54t104 -27v-116q0 -28 3 -42.5t23 -14.5q12 0 18.5 9.5t6.5 45.5v119q52 5 88 21t59.5 37.5t36.5 46t19.5 46t7.5 38t1 22.5q0 41 -15 76.5t-44 61.5q-15 13 -36.5 24t-44 19.5t-42.5 15t-30 9.5v251zM254 420q-21 6 -42 14t-38 21t-28 33t-11 50q0 38 14.5 62t34 37
t39.5 17.5t32 4.5zM306 321q22 -7 45 -16t42 -23t31 -36t12 -55q0 -5 -2 -23.5t-14 -41t-38.5 -43t-75.5 -28.5v266z" />
    <glyph glyph-name="percent" unicode="%" horiz-adv-x="833" 
d="M22 532q0 -16 2 -47t15.5 -62t43 -54t83.5 -23t83.5 23t43 54.5t16 64t2.5 52.5q0 32 -6.5 63.5t-22.5 57t-44.5 41.5t-71.5 16q-54 0 -83.5 -23t-43 -54t-15.5 -62t-2 -47zM522 180q0 -16 2 -47t15.5 -62t43 -54t83.5 -23t83.5 23t43 54.5t16 64t2.5 52.5
q0 32 -6.5 63.5t-22.5 57t-44.5 41.5t-71.5 16q-54 0 -83.5 -23t-43 -54t-15.5 -62t-2 -47zM86 532q0 66 17 102.5t64 36.5q45 0 62.5 -33.5t17.5 -100.5q0 -34 -3.5 -60.5t-12.5 -45t-24.5 -28.5t-39.5 -10q-47 0 -64 37t-17 102zM586 180q0 66 17 102.5t64 36.5
q45 0 62.5 -33.5t17.5 -100.5q0 -34 -3.5 -60.5t-12.5 -45t-24.5 -28.5t-39.5 -10q-47 0 -64 37t-17 102zM164 23q-11 -14 -11 -26q0 -6 7.5 -14.5t19.5 -8.5q5 0 12 2.5t18 19.5l452 668q6 8 12.5 19t6.5 18q0 9 -7.5 17.5t-18.5 8.5t-18 -8t-19 -25z" />
    <glyph glyph-name="ampersand" unicode="&#x26;" horiz-adv-x="698" 
d="M554 161q6 10 16.5 30t21 42.5t18 43.5t7.5 34q0 17 -12 28.5t-29 11.5q-21 0 -35 -26q-3 -6 -9.5 -20.5t-14 -31t-14 -31t-9.5 -20.5q-15 16 -26.5 29t-26.5 30t-36.5 43t-56.5 69q66 35 108 77.5t42 99.5q0 22 -9 49.5t-29.5 51.5t-53.5 40.5t-81 16.5q-45 0 -78.5 -15
t-55.5 -38.5t-32.5 -52t-10.5 -56.5q0 -37 20.5 -75.5t55.5 -83.5q-28 -15 -57.5 -34t-54 -43.5t-40.5 -57t-16 -75.5q0 -34 14 -71t43 -67.5t73.5 -50.5t106.5 -20q42 0 74.5 9.5t57.5 24t43.5 32.5t32.5 35l21.5 -21.5t39.5 -36.5q18 -16 30 -25t19.5 -13t12 -4.5
t8.5 -0.5q13 0 27.5 11t14.5 33q0 12 -6 20t-20 21q-19 16 -30.5 26.5t-21 19t-18.5 18t-24 24.5zM269 350q13 -18 35 -45t46.5 -55.5t49 -55.5t42.5 -46q-7 -9 -20 -24.5t-31.5 -29.5t-43 -24.5t-55.5 -10.5q-32 0 -58.5 13t-46 34t-30 47t-10.5 53t10.5 47.5t27.5 38
t39 31.5t45 27zM302 448q-2 3 -8 11t-13 17.5t-13 17.5t-8 10q-8 11 -16.5 30.5t-8.5 39.5q0 16 6.5 31.5t18.5 27.5t29 19.5t37 7.5q40 0 64.5 -26t24.5 -61q0 -21 -9 -38.5t-24.5 -32.5t-36 -28t-43.5 -26z" />
    <glyph glyph-name="quotesingle" unicode="'" horiz-adv-x="188" 
d="M66 462h55l23 134v120h-100v-120z" />
    <glyph glyph-name="parenleft" unicode="(" horiz-adv-x="344" 
d="M73 259q0 -60 9 -112.5t24.5 -99.5t37.5 -91t48 -87q18 -30 30.5 -46t22 -23.5t16.5 -8.5t14 -1q10 0 14 3t4 6t-2 6q-1 3 -6 12.5t-7 12.5q-41 80 -64.5 144.5t-35.5 116.5t-15 93.5t-3 74.5q0 45 5 96t21 105q18 62 42.5 120.5t54.5 115.5q7 13 8.5 16t1.5 7q0 7 -9 8
t-11 1q-5 0 -11 -1t-13.5 -6t-17 -15t-21.5 -28q-45 -67 -72 -126.5t-41.5 -112t-19 -97.5t-4.5 -83z" />
    <glyph glyph-name="parenright" unicode=")" horiz-adv-x="344" 
d="M271 259q0 60 -9 112.5t-24.5 99.5t-37.5 91t-48 87q-18 30 -30.5 46t-22 23.5t-16.5 8.5t-14 1q-10 0 -14 -3t-4 -6t2 -6q1 -3 6 -12.5t7 -12.5q41 -80 64.5 -144.5t35.5 -116.5t15 -93.5t3 -74.5q0 -45 -5 -96t-21 -105q-18 -62 -42.5 -120.5t-54.5 -115.5
q-7 -13 -8.5 -16t-1.5 -7q0 -7 9 -8t11 -1q10 0 24.5 7.5t38.5 42.5q45 67 72 126.5t41.5 112t19 97.5t4.5 83z" />
    <glyph glyph-name="asterisk" unicode="*" horiz-adv-x="406" 
d="M234 714q0 20 -10.5 27.5t-20.5 7.5q-14 0 -23 -9.5t-9 -23.5q0 -9 1.5 -25t3 -34t3.5 -34.5t3 -26.5q-39 18 -61.5 28t-35 15t-18 6t-10.5 1q-8 0 -18.5 -7.5t-10.5 -23.5q0 -14 13.5 -24.5t57.5 -19.5q4 -1 13.5 -3t21 -4.5t21.5 -4.5t14 -3q-10 -10 -24.5 -26
t-28.5 -32.5t-24 -31t-10 -23.5t8.5 -19.5t24.5 -10.5q6 0 11.5 2.5t7.5 4.5q4 4 8 9.5t11 16.5t18.5 31t31.5 54q7 -13 20.5 -36t36.5 -56q14 -20 22 -23t13 -3q13 0 22.5 9t9.5 22q0 5 -2.5 11t-11.5 17.5t-26.5 31t-47.5 52.5q48 9 75.5 16t41.5 13.5t18 13.5t4 16
q0 17 -11 24t-18 7q-12 0 -26.5 -5.5t-17.5 -7.5q-5 -2 -16 -7.5t-24 -11.5t-24.5 -11t-15.5 -7z" />
    <glyph glyph-name="plus" unicode="+" horiz-adv-x="583" 
d="M251 116h82v196h196v82h-196v196h-82v-196h-196v-82h196v-196z" />
    <glyph glyph-name="comma" unicode="," horiz-adv-x="240" 
d="M120 -12q0 -14 -4 -25t-8.5 -19t-8.5 -13t-5 -6q-11 -10 -15.5 -15.5t-4.5 -14.5t6.5 -17t16.5 -8q15 0 30 12t27 32t19.5 47t7.5 57q0 37 -15.5 59.5t-45.5 22.5q-23 0 -40.5 -16t-17.5 -41q0 -22 15.5 -38t42.5 -17z" />
    <glyph glyph-name="hyphen" unicode="-" horiz-adv-x="333" 
d="M90 291q-12 0 -24 -0.5t-22 -4.5t-16.5 -12.5t-6.5 -23.5t6.5 -23.5t16.5 -12.5t22.5 -4.5t23.5 -0.5h153q12 0 24 0.5t22 4.5t16.5 12.5t6.5 23.5t-6.5 23.5t-16.5 12.5t-22.5 4.5t-23.5 0.5h-153z" />
    <glyph glyph-name="hyphen" unicode="&#xad;" horiz-adv-x="333" 
d="M90 291q-12 0 -24 -0.5t-22 -4.5t-16.5 -12.5t-6.5 -23.5t6.5 -23.5t16.5 -12.5t22.5 -4.5t23.5 -0.5h153q12 0 24 0.5t22 4.5t16.5 12.5t6.5 23.5t-6.5 23.5t-16.5 12.5t-22.5 4.5t-23.5 0.5h-153z" />
    <glyph glyph-name="period" unicode="." horiz-adv-x="240" 
d="M120 98q-23 0 -39 -16t-16 -39t16 -39t39 -16t39 16t16 39t-16 39t-39 16z" />
    <glyph glyph-name="slash" unicode="/" horiz-adv-x="281" 
d="M17 44q-3 -13 -4.5 -18.5t-1.5 -10.5q0 -13 9.5 -20t19.5 -7q12 0 19 1.5t11 6t7 12.5t6 20l181 644q3 13 4.5 18t1.5 10q0 13 -9.5 20.5t-19.5 7.5q-12 0 -19 -2t-11 -6.5t-7 -12t-6 -19.5z" />
    <glyph glyph-name="zero" unicode="0" 
d="M46 352q0 -66 6 -112.5t15.5 -79.5t22 -55.5t26.5 -40.5q32 -42 74.5 -59t90.5 -17q54 0 94.5 18t71.5 58q13 17 26 39t22.5 56.5t15.5 84.5t6 124q0 57 -5.5 99.5t-15 74.5t-22.5 55.5t-27 42.5q-30 40 -72.5 58t-92.5 18q-106 0 -166 -76q-14 -17 -26.5 -39t-22 -55.5
t-15.5 -80.5t-6 -113zM135 352q0 64 6 118t22.5 93.5t45 62t73.5 22.5t73.5 -23t44.5 -62.5t22 -93.5t6 -117t-6 -117.5t-22 -94t-44.5 -62t-73.5 -22.5t-74 23t-45 62.5t-22 93.5t-6 117z" />
    <glyph glyph-name="one" unicode="1" 
d="M375 650q0 7 -0.5 18.5t-4.5 22t-11.5 18t-22.5 7.5q-14 0 -22 -8.5t-17 -22.5q-20 -31 -45 -55t-49 -42t-44.5 -29t-29.5 -15q-28 -13 -35.5 -22.5t-7.5 -20.5q0 -19 11.5 -27.5t20.5 -8.5q7 0 19 3t31.5 14t49 31t70.5 55v-520q0 -5 0.5 -15t4.5 -20t13 -17.5t25 -7.5
t25 7t13.5 17.5t5 22t0.5 20.5v595z" />
    <glyph glyph-name="two" unicode="2" 
d="M155 79q6 13 13 25t22.5 29.5t43 42t75.5 62.5q45 36 82.5 67.5t64.5 64t42 68t15 78.5q0 12 -2.5 31.5t-11 42t-24 45t-41 40.5t-62.5 29.5t-88 11.5q-59 0 -101.5 -19.5t-70 -48.5t-41 -62.5t-13.5 -61.5q0 -12 4 -19.5t10 -12t12.5 -6t10.5 -1.5q24 0 32.5 17t15.5 43
q7 27 22 46.5t34.5 32t41.5 18.5t44 6q26 0 51 -8.5t44.5 -25.5t31.5 -42t12 -58q0 -23 -6 -44t-21.5 -44t-43.5 -50t-72 -63q-26 -21 -51.5 -41.5t-51.5 -42.5q-62 -53 -97 -101t-35 -84q0 -21 14 -32.5t46 -11.5h347q13 0 25.5 0.5t23 4.5t17 12t6.5 23t-7 22.5
t-17.5 11.5t-23.5 4.5t-25 0.5h-297z" />
    <glyph glyph-name="three" unicode="3" 
d="M382 385q13 7 31 18.5t34.5 29t27.5 42t11 59.5q0 37 -14 70t-40.5 58t-65 39.5t-86.5 14.5q-62 0 -103 -21t-66 -49t-35 -56t-10 -42q0 -4 1.5 -10.5t5.5 -12.5t11.5 -10t18.5 -4q9 0 15 2t10.5 8t9.5 16.5t12 26.5q7 15 18 30.5t26.5 28t35.5 20.5t46 8q31 0 53.5 -11
t37.5 -28t22.5 -37.5t7.5 -40.5q0 -31 -17.5 -61.5t-54.5 -45.5q-24 -10 -41.5 -11.5t-37.5 -1.5q-4 0 -12 -1t-16 -4.5t-14 -11t-6 -20.5q0 -12 9 -23t29 -11q3 0 11 1t17.5 1.5t18 1.5t11.5 1q36 0 61.5 -12.5t42 -32.5t24.5 -44.5t8 -48.5q0 -29 -10.5 -56.5t-30 -49
t-48.5 -35t-65 -13.5t-61.5 12.5t-42.5 30.5t-27 38.5t-15 36.5q-5 17 -13 29t-27 12q-18 0 -29 -11.5t-11 -23.5q0 -26 17 -63.5t46 -68.5q12 -12 27 -23t36 -19t49 -13t64 -5q57 0 100.5 19t72 50.5t43 71.5t14.5 83q0 51 -16 82.5t-37.5 50.5t-45 27.5t-38.5 12.5z" />
    <glyph glyph-name="four" unicode="4" 
d="M347 169v-113q0 -12 0.5 -24t4.5 -21.5t12.5 -16t24.5 -6.5q10 0 17 3.5t12 8.5q9 8 10.5 21.5t1.5 34.5v113h52q7 0 16.5 0.5t18.5 4t15 11t6 21.5t-6 21.5t-15 11t-19 4t-19 0.5h-49v403q0 13 -0.5 25.5t-5 22.5t-13.5 16t-25 6q-8 0 -18 -6t-31 -34l-300 -405
q-10 -13 -15.5 -21t-8.5 -13.5t-4 -9.5t-1 -9q0 -21 16 -37q9 -9 23 -10.5t41 -1.5h259zM98 243l249 338v-338h-249z" />
    <glyph glyph-name="five" unicode="5" 
d="M194 630h249q9 0 19.5 0.5t19.5 4.5t15 11.5t6 22.5q0 14 -6 22t-15.5 11.5t-20 4t-19.5 0.5h-249q-19 0 -32 -1.5t-21 -7.5t-13 -18.5t-9 -33.5l-48 -264q-2 -14 -3 -19t-1 -10q0 -15 12 -26.5t28 -11.5q13 0 21 5.5t11 8.5q13 13 27.5 25t31.5 21.5t38 15.5t49 6
q30 0 57 -11t47.5 -32t33 -52.5t12.5 -71.5q0 -29 -9 -60t-27.5 -56.5t-48 -41.5t-69.5 -16q-35 0 -59.5 10.5t-41.5 27t-28 36t-18 37.5q-6 14 -14.5 25t-27.5 11q-13 0 -26 -9t-13 -32q0 -11 4.5 -23t9.5 -22q21 -42 47.5 -67.5t54.5 -39t55.5 -18t49.5 -4.5q64 0 111 23
t78 59t46 80t15 86q0 49 -17 90.5t-47 72.5t-70.5 48.5t-87.5 17.5q-27 0 -49.5 -5.5t-41 -13t-32.5 -15.5t-23 -14z" />
    <glyph glyph-name="six" unicode="6" 
d="M130 361q1 17 3 39.5t5 47t8 48.5t13 44q13 34 31 55.5t37.5 33.5t38.5 16.5t35 4.5q29 0 49 -9t33 -22.5t20.5 -29t12.5 -27.5q4 -11 12.5 -24t30.5 -13q19 0 29 12.5t10 23.5q0 8 -7 33t-28 52t-59.5 48.5t-101.5 21.5q-14 0 -36 -2.5t-47 -11.5t-51 -25.5t-48 -44.5
q-24 -31 -39.5 -66.5t-24 -74t-11.5 -78t-3 -79.5q0 -52 4.5 -89.5t11.5 -64.5t15 -45t16 -31q10 -17 26 -37.5t40.5 -38t57.5 -29t76 -11.5q56 0 99.5 21t73 55t45 77.5t15.5 88.5t-15 86t-42.5 72t-66.5 49t-87 18q-41 0 -72 -11.5t-53 -27t-35.5 -31t-20.5 -24.5zM293 56
q-35 0 -62.5 15t-47 39t-30 55.5t-10.5 64.5q0 45 16 75t39 48.5t49 26t46 7.5q28 0 53.5 -10.5t44.5 -31t30 -50t11 -68.5q0 -35 -10 -66t-28 -54t-43.5 -37t-57.5 -14z" />
    <glyph glyph-name="seven" unicode="7" 
d="M405 631q-62 -79 -110 -155.5t-82 -165.5q-12 -30 -23.5 -64t-20.5 -69.5t-14.5 -70.5t-5.5 -65q0 -5 1 -14t5.5 -17.5t13.5 -15t25 -6.5q14 0 22.5 6t13.5 14t6.5 16.5t2.5 13.5q9 64 21.5 129t37.5 134t65 143t105 155q13 17 21 27.5t12.5 17t5.5 11.5t1 11
q0 15 -6 23.5t-16.5 12.5t-25 4.5t-30.5 0.5h-338q-9 0 -19 -0.5t-17.5 -4t-12.5 -11t-5 -20.5q0 -15 6.5 -23t15 -12t17.5 -4.5t15 -0.5h313z" />
    <glyph glyph-name="eight" unicode="8" 
d="M392 385q9 4 26 13.5t33.5 26t28.5 42.5t12 63q0 30 -11.5 63t-37 60t-66 45t-98.5 18q-51 0 -90.5 -16.5t-66 -42.5t-40 -59.5t-13.5 -67.5q0 -37 12.5 -62.5t29 -42.5t33.5 -26.5t27 -13.5q-12 -5 -33.5 -14.5t-42.5 -29.5t-36.5 -52.5t-15.5 -81.5q0 -41 14.5 -80.5
t43.5 -70t74 -49.5t106 -19q59 0 103.5 18t74.5 48.5t45.5 70t15.5 81.5q0 49 -16 82t-37 53t-42.5 30t-32.5 14zM280 348q66 0 109.5 -37.5t43.5 -107.5q0 -38 -13 -66t-34.5 -46.5t-49 -27.5t-55.5 -9q-29 0 -56 9t-48 27.5t-34 46.5t-13 66q0 37 12 64t32.5 45t48 27
t57.5 9zM280 652q33 0 57 -11.5t39.5 -29.5t23 -40t7.5 -42q0 -51 -36 -83t-90 -32q-27 0 -50 8.5t-40.5 23.5t-27 36t-9.5 47q0 25 9.5 47.5t26 39t40 26.5t50.5 10z" />
    <glyph glyph-name="nine" unicode="9" 
d="M430 343q-1 -17 -3 -39.5t-5 -47t-8 -48.5t-13 -44q-14 -34 -31.5 -55.5t-37 -33.5t-38.5 -16.5t-35 -4.5q-29 0 -49 9t-33 22.5t-21 29t-12 27.5q-4 11 -12.5 24t-30.5 13q-19 0 -29 -12.5t-10 -23.5q0 -8 7 -33t28 -52t59.5 -48.5t101.5 -21.5q14 0 36 2.5t47 11.5
t51 25.5t48 44.5q24 31 39.5 66.5t24 74t11.5 78t3 79.5q0 52 -4.5 89.5t-11.5 64.5t-15.5 45t-15.5 31q-10 17 -26 37.5t-40.5 38t-57.5 29t-76 11.5q-56 0 -99.5 -21t-73 -55t-45 -77.5t-15.5 -88.5t15 -86t42.5 -72t66.5 -49t87 -18q41 0 72 11.5t53 27t35.5 31
t20.5 24.5zM267 648q35 0 62.5 -15t47 -39t30 -55.5t10.5 -64.5q0 -45 -16 -75t-39 -48.5t-49 -26t-46 -7.5q-28 0 -53.5 10.5t-44.5 31t-30 50t-11 68.5q0 34 10 65.5t28 54.5t43.5 37t57.5 14z" />
    <glyph glyph-name="colon" unicode=":" horiz-adv-x="240" 
d="M120 530q-23 0 -39 -16t-16 -39t16 -39t39 -16t39 16t16 39t-16 39t-39 16zM120 98q-23 0 -39 -16t-16 -39t16 -39t39 -16t39 16t16 39t-16 39t-39 16z" />
    <glyph glyph-name="semicolon" unicode=";" horiz-adv-x="240" 
d="M119 530q-23 0 -39 -16t-16 -39t16 -39t39 -16t39 16t16 39t-16 39t-39 16zM120 -12q0 -14 -4 -25t-8.5 -19t-8.5 -13t-5 -6q-11 -10 -15.5 -15.5t-4.5 -14.5t6.5 -17t16.5 -8q15 0 30 12t27 32t19.5 47t7.5 57q0 37 -15.5 59.5t-45.5 22.5q-23 0 -40.5 -16t-17.5 -41
q0 -22 15.5 -38t42.5 -17z" />
    <glyph glyph-name="semicolon" unicode="&#x37e;" horiz-adv-x="240" 
d="M119 530q-23 0 -39 -16t-16 -39t16 -39t39 -16t39 16t16 39t-16 39t-39 16zM120 -12q0 -14 -4 -25t-8.5 -19t-8.5 -13t-5 -6q-11 -10 -15.5 -15.5t-4.5 -14.5t6.5 -17t16.5 -8q15 0 30 12t27 32t19.5 47t7.5 57q0 37 -15.5 59.5t-45.5 22.5q-23 0 -40.5 -16t-17.5 -41
q0 -22 15.5 -38t42.5 -17z" />
    <glyph glyph-name="less" unicode="&#x3c;" horiz-adv-x="583" 
d="M55 393v-82l474 -200v87l-375 154l375 156v87z" />
    <glyph glyph-name="equal" unicode="=" horiz-adv-x="583" 
d="M529 421v82h-474v-82h474zM529 204v82h-474v-82h474z" />
    <glyph glyph-name="greater" unicode="&#x3e;" horiz-adv-x="583" 
d="M529 313v82l-474 200v-87l375 -154l-375 -156v-87z" />
    <glyph glyph-name="question" unicode="?" horiz-adv-x="531" 
d="M48 543q0 -23 15 -34.5t30 -11.5q24 0 32.5 15t13.5 28q3 12 10.5 31.5t22.5 37.5t38.5 31.5t59.5 13.5q28 0 51.5 -9.5t40.5 -26t26 -38t9 -44.5q0 -20 -5.5 -36t-16.5 -31t-27.5 -31t-37.5 -35q-24 -21 -41.5 -40.5t-29.5 -40.5t-18 -45t-6 -55q0 -4 0.5 -12.5
t4.5 -17.5t12.5 -15.5t24.5 -6.5q13 0 21 5t12.5 11.5t6 13.5t1.5 10q3 25 6 40.5t12 30.5t26 33t47 47q50 48 74.5 87t24.5 89q0 34 -12.5 68t-39 61.5t-66.5 44.5t-94 17q-66 0 -109.5 -23.5t-70 -55t-37.5 -62t-11 -44.5zM266 98q-23 0 -39 -16t-16 -39t16 -39t39 -16
t39 16t16 39t-16 39t-39 16z" />
    <glyph glyph-name="at" unicode="@" horiz-adv-x="1010" 
d="M641 439q-19 31 -41 49t-42 27t-37.5 11t-27.5 2q-51 0 -97 -28t-80.5 -72.5t-55 -100t-20.5 -110.5q0 -45 13.5 -85t37 -70t56 -47t70.5 -17q27 0 50.5 9t42.5 21.5t33.5 26.5t23.5 24q1 -12 4 -26.5t12 -26.5t27.5 -20.5t50.5 -8.5q35 0 65.5 10t55.5 26t55 44
t56.5 67.5t44 90t17.5 112.5q0 70 -26 138t-78.5 122t-130.5 87.5t-183 33.5q-92 0 -163.5 -23.5t-125 -63t-90.5 -91t-60 -107t-33.5 -111.5t-10.5 -104q0 -87 27.5 -166t87.5 -140t153.5 -97t225.5 -36q97 0 185 26.5t169 96.5q28 24 46 47.5t31 49.5h-88
q-13 -19 -38.5 -44.5t-66.5 -48.5t-100 -39t-139 -16q-76 0 -151.5 18t-135.5 61.5t-97 115.5t-37 180q0 84 28 160.5t81 134t128 91.5t170 34q73 0 136.5 -22t111 -62.5t75 -97t27.5 -125.5q0 -63 -22 -113t-52.5 -85t-62.5 -53.5t-52 -18.5q-10 0 -22 7.5t-12 24.5
q0 3 1.5 12t3.5 20t5 22.5t5 21.5l70 328h-87zM330 211q0 32 10.5 74t32 80t53.5 64.5t74 26.5q22 0 42.5 -8.5t36.5 -26t25 -44t9 -61.5q0 -50 -15.5 -94.5t-41 -78t-57 -53.5t-64.5 -20q-18 0 -36.5 8.5t-34 25.5t-25 44t-9.5 63z" />
    <glyph glyph-name="A" unicode="A" horiz-adv-x="688" 
d="M501 207l64 -158q12 -30 21.5 -45.5t34.5 -15.5q22 0 35 15t13 29q0 11 -3.5 22t-11.5 30l-235 560q-7 17 -15.5 36.5t-16.5 27.5q-8 9 -21 14.5t-27 5.5q-17 0 -28.5 -5.5t-20 -16t-15.5 -26.5t-15 -37l-227 -563q-7 -17 -10.5 -28t-3.5 -22q0 -15 13 -28.5t33 -13.5
q25 0 34.5 15t20.5 44l62 160h319zM209 284l129 335l134 -335h-263z" />
    <glyph glyph-name="B" unicode="B" horiz-adv-x="688" 
d="M387 0q54 0 90.5 9.5t62.5 23.5q45 25 69.5 71t24.5 98q0 48 -16 80t-38 51.5t-45.5 29.5t-38.5 15q39 18 60 42.5t31 47.5t11.5 41.5t1.5 25.5q0 48 -22 88t-63 64q-8 5 -18.5 10t-27 9.5t-40.5 7t-59 2.5h-206q-27 0 -43 -2.5t-24 -10.5t-10.5 -24t-2.5 -43v-556
q0 -27 2.5 -42.5t10.5 -24t24 -11t43 -2.5h223zM380 332q26 0 59.5 -7t61.5 -32q35 -32 35 -87q0 -32 -11.5 -56t-27.5 -38q-6 -5 -14 -11t-21.5 -11.5t-33.5 -9t-48 -3.5h-200v255h200zM180 639h155q19 0 48.5 -1.5t56.5 -12t46.5 -33.5t19.5 -67q0 -25 -8 -44.5t-27 -38.5
q-20 -20 -49.5 -26.5t-58.5 -6.5h-183v230z" />
    <glyph glyph-name="C" unicode="C" horiz-adv-x="729" 
d="M677 223q0 20 -13.5 30t-27.5 10q-21 0 -29.5 -13.5t-13.5 -27.5q-26 -75 -78 -116t-130 -41q-35 0 -76 12t-75.5 44.5t-57.5 88.5t-23 144t23.5 145.5t59 91t77.5 47t80 13.5q37 0 61.5 -9t40.5 -19q23 -14 43 -35.5t34 -47.5q5 -10 11 -20.5t13.5 -19t16 -14t19.5 -5.5
q20 0 29.5 14t9.5 28q0 9 -6.5 27.5t-20 41t-35.5 47t-53.5 44t-73 32.5t-93.5 13q-73 0 -134 -26.5t-105.5 -74.5t-69.5 -116.5t-25 -152.5q0 -81 26 -157t76 -128q24 -25 53 -41.5t60 -26t62.5 -13.5t61.5 -4q77 0 131 28t87.5 66.5t49 78t15.5 62.5z" />
    <glyph glyph-name="D" unicode="D" horiz-adv-x="729" 
d="M341 0q21 0 46.5 1t53 6.5t55 16t53.5 28.5q40 28 64.5 66.5t38 80t18.5 83.5t5 77q0 71 -17 139t-62 122q-29 35 -62 54.5t-66.5 28.5t-66 11t-61.5 2h-174q-27 0 -43 -2.5t-24.5 -10.5t-11 -24t-2.5 -43v-544q0 -30 1.5 -48t9.5 -28t24.5 -13t45.5 -3h175zM181 639h142
q40 0 69.5 -3.5t52.5 -12t40.5 -22.5t33.5 -35q23 -30 40.5 -85t17.5 -127q0 -7 -1 -30.5t-6.5 -54t-17 -63t-33.5 -58.5q-18 -22 -37.5 -35.5t-42 -21.5t-50 -11t-61.5 -3h-147v562z" />
    <glyph glyph-name="E" unicode="E" horiz-adv-x="635" 
d="M183 639h333q11 0 23 0.5t21.5 4t15.5 11.5t6 23t-6 22.5t-16 11t-21.5 4t-22.5 0.5h-349q-32 0 -44.5 -2t-22.5 -13q-11 -11 -12 -25t-1 -40v-556q0 -30 1.5 -43t12.5 -23q6 -5 11 -8t11.5 -4.5t16.5 -1.5h27h363q11 0 23 0.5t21.5 4t15.5 11.5t6 23t-6 22.5t-16 11
t-21.5 4t-22.5 0.5h-347v255h306q11 0 22.5 0.5t20.5 4.5t15 11.5t6 22.5q0 14 -6 22t-15 11.5t-20.5 4t-22.5 0.5h-306v230z" />
    <glyph glyph-name="F" unicode="F" horiz-adv-x="573" 
d="M180 639h297q11 0 22.5 0.5t21 4t15.5 11.5t6 23t-6 22.5t-15.5 11t-21 4t-22.5 0.5h-313q-27 0 -43 -2.5t-24 -10.5t-10.5 -24t-2.5 -43v-569q0 -26 1.5 -40.5t10.5 -24.5q16 -14 36 -14q11 0 20 4.5t15 10.5q9 9 11 23.5t2 40.5v261h247q11 0 22.5 0.5t20.5 4.5
t15 11.5t6 22.5q0 14 -6 22t-15.5 11.5t-21 4t-21.5 0.5h-247v234z" />
    <glyph glyph-name="G" unicode="G" horiz-adv-x="781" 
d="M628 132q-52 -35 -104 -51t-106 -16q-48 0 -99 15t-89 53q-24 24 -39.5 53.5t-24.5 59.5t-12 59.5t-3 55.5q0 62 16.5 115t49 92t80 61t110.5 22q48 0 81.5 -12t56.5 -29.5t37.5 -37.5t23.5 -37q14 -26 24.5 -34.5t22.5 -8.5q26 0 36.5 13t10.5 29q0 11 -11.5 42.5
t-43 65.5t-87 60t-143.5 26q-95 0 -163.5 -31t-112.5 -82.5t-65 -119t-21 -140.5q0 -74 21.5 -141t66 -117t113.5 -79.5t164 -29.5q60 0 110 13t87 29t58 30t22 15q18 13 21 27t3 36v157q0 22 -3.5 35.5t-12.5 21t-24 10t-38 2.5h-180q-8 0 -18 -0.5t-18.5 -4.5t-14.5 -11.5
t-6 -22.5q0 -14 6 -22t15.5 -11.5t21.5 -4t24 -0.5h157v-155z" />
    <glyph glyph-name="H" unicode="H" horiz-adv-x="729" 
d="M177 414v235q0 26 -2 40.5t-12 23.5q-14 15 -35 15q-12 0 -21 -5t-14 -10q-9 -9 -10.5 -23.5t-1.5 -40.5v-582q0 -26 1.5 -40.5t10.5 -24.5q16 -14 35 -14q13 0 21.5 5t13.5 10q10 9 12 23.5t2 40.5v270h375v-271q0 -25 2.5 -39.5t11.5 -24.5q16 -14 35 -14q12 0 21 5
t14 10q9 9 10.5 23t1.5 40v584q0 25 -1.5 39.5t-10.5 23.5q-15 15 -35 15q-12 0 -21 -5t-14 -10q-9 -9 -11.5 -23t-2.5 -40v-236h-375z" />
    <glyph glyph-name="I" unicode="I" horiz-adv-x="292" 
d="M194 649q0 25 -1.5 40t-11.5 24q-7 8 -16.5 11.5t-18.5 3.5q-13 0 -21.5 -5t-13.5 -10q-10 -9 -11.5 -23.5t-1.5 -40.5v-582q0 -26 1.5 -40.5t11.5 -24.5q7 -7 16.5 -10.5t18.5 -3.5q12 0 21 5t14 10q10 9 11.5 23.5t1.5 40.5v582z" />
    <glyph glyph-name="J" unicode="J" horiz-adv-x="531" 
d="M348 218q0 -20 -1.5 -41t-9.5 -41q-5 -13 -13.5 -26t-21.5 -23t-30.5 -16t-39.5 -6q-35 0 -56.5 13.5t-33.5 31t-17 35t-7 25.5l-7 31.5t-8 21.5t-12.5 12t-19.5 4q-4 0 -11.5 -1t-15 -6t-13 -14.5t-5.5 -26.5q0 -16 3.5 -36t10 -40.5t17 -40t25.5 -34.5q25 -26 60.5 -39
t90.5 -13q79 0 122 27t62.5 65t23 78t3.5 67v424q0 24 -1.5 40t-12.5 25q-14 14 -34 14q-12 0 -20.5 -4.5t-13.5 -9.5q-10 -9 -12 -25t-2 -40v-431z" />
    <glyph glyph-name="K" unicode="K" horiz-adv-x="698" 
d="M183 359v290q0 24 -1.5 40t-12.5 25q-14 14 -34 14q-12 0 -20.5 -4.5t-13.5 -9.5q-11 -9 -12.5 -25t-1.5 -40v-582q0 -24 1.5 -39.5t10.5 -24.5q15 -15 37 -15q7 0 15.5 2.5t15.5 9t11.5 17.5t4.5 29v204l125 116l238 -327q11 -15 18.5 -24.5t14.5 -15.5t14 -8.5t17 -2.5
q20 0 34.5 12t14.5 32q0 17 -12 34.5t-18 25.5l-256 335l230 212q20 20 24 30t4 18q0 14 -12 27.5t-32 13.5q-14 0 -22.5 -5.5t-27.5 -24.5z" />
    <glyph glyph-name="L" unicode="L" horiz-adv-x="573" 
d="M180 77v572q0 25 -1.5 40t-11.5 24q-14 15 -36 15q-12 0 -21 -5t-14 -10q-9 -9 -10.5 -23.5t-1.5 -40.5v-569q0 -27 2.5 -43t10.5 -24t24 -10.5t43 -2.5h319q12 0 23.5 0.5t21.5 3.5t16 11t6 23t-6.5 23t-16 11.5t-21.5 4t-23 0.5h-303z" />
    <glyph glyph-name="M" unicode="M" horiz-adv-x="792" 
d="M54 58q0 -12 1 -24.5t5.5 -22.5t14 -16.5t25.5 -6.5q17 0 26.5 7.5t14 18.5t5 23.5t0.5 21.5v550l184 -545q9 -25 15.5 -40t13.5 -23t16 -10.5t23 -2.5q13 0 21.5 3.5t15 12.5t12 23.5t13.5 36.5l186 535v-554q0 -4 0.5 -13.5t5 -19t14 -17t26.5 -7.5t26 7.5t13.5 18
t5.5 20.5t1 15v587q0 23 -1.5 38.5t-8 24.5t-20.5 13t-38 4q-23 0 -35.5 -1.5t-20.5 -7.5t-13.5 -19t-13.5 -37l-148 -433q-9 -26 -14 -41.5t-9 -27t-7.5 -21.5t-7.5 -25q-8 26 -17 53t-18 53l-149 445q-8 23 -14.5 35.5t-16 18.5t-23.5 7t-37 1q-9 0 -21.5 -1.5t-24 -9
t-19 -23.5t-7.5 -46v-578z" />
    <glyph glyph-name="N" unicode="N" horiz-adv-x="729" 
d="M559 142l-355 530q-20 31 -32 43.5t-34 12.5q-17 0 -26 -5.5t-12 -8.5q-7 -6 -11 -12.5t-5.5 -15t-2 -21t-0.5 -30.5v-570q0 -25 1.5 -39.5t11.5 -23.5q14 -14 34 -14q14 0 25 7.5t15 15.5q5 10 5.5 20t0.5 34l-4 502l349 -521q11 -16 19 -27t15.5 -18t15.5 -10t20 -3
q22 0 39 14q15 13 17.5 29.5t2.5 53.5v566q0 25 -1.5 39.5t-11.5 23.5q-14 14 -34 14q-14 0 -24.5 -7.5t-14.5 -15.5q-5 -10 -6 -20.5t0 -33.5z" />
    <glyph glyph-name="O" unicode="O" horiz-adv-x="781" 
d="M730 358q0 62 -17 127.5t-56 119.5t-104 88.5t-161 34.5q-101 0 -166.5 -36t-104.5 -91t-54.5 -120t-15.5 -123q0 -36 6 -77.5t21 -82.5t40 -79t63 -67t90.5 -46.5t122.5 -17.5q91 0 155 32.5t104.5 85t58.5 119t18 133.5zM632 358q0 -60 -12 -105t-32 -77.5t-45.5 -54
t-52.5 -34t-53 -17.5t-47 -5q-49 0 -93 19.5t-77 55.5t-52 88t-19 118q0 25 3 56.5t11.5 63.5t22.5 61.5t37 51.5q31 31 73 51.5t94 20.5q21 0 47 -5t53 -17.5t52.5 -34t45.5 -54t32 -77.5t12 -105z" />
    <glyph glyph-name="P" unicode="P" horiz-adv-x="635" 
d="M183 294h163q32 0 56 3.5t41.5 9t29.5 11t20 9.5q25 13 43.5 33.5t30.5 45t17.5 51t5.5 51.5q0 53 -20 96t-56 70t-79.5 34.5t-88.5 7.5h-171q-28 0 -45.5 -1.5t-27 -9t-12.5 -24t-3 -45.5v-569q0 -23 1.5 -39t10.5 -25q15 -15 36 -15q14 0 25.5 8t15.5 16q5 11 6 24.5
t1 30.5v227zM321 639q15 0 33.5 -0.5t37 -4.5t35.5 -11.5t30 -20.5q18 -19 26.5 -44.5t8.5 -51.5q0 -48 -19 -75t-46 -40.5t-56.5 -16.5t-49.5 -3h-138v268h138z" />
    <glyph glyph-name="Q" unicode="Q" horiz-adv-x="781" 
d="M630 78q30 32 49 67t30.5 70.5t16 71t4.5 69.5q0 35 -6 76t-20.5 82.5t-39 80t-62.5 68t-90 47.5t-122 18q-100 0 -165.5 -36t-104 -91t-54 -120t-15.5 -123q0 -65 17.5 -131t57.5 -119t104.5 -86.5t158.5 -33.5q37 0 66.5 5t52 11.5t38 14t24.5 12.5q20 -14 42 -28.5
t43 -26.5t39 -20t30 -8t22.5 10t10.5 24q0 12 -9 21t-35 23q-13 7 -23.5 13t-20 12t-19 12.5t-20.5 14.5zM553 130q-16 13 -35.5 26t-39.5 24t-37.5 18t-28.5 7q-13 0 -21 -11t-8 -22q0 -12 11 -20.5t18 -11.5q22 -11 35.5 -18t22 -12t14 -9t13.5 -10q-40 -20 -70 -23
t-38 -3q-33 0 -74.5 13t-78.5 46t-62 89.5t-25 142.5q0 64 13.5 110.5t34.5 79.5t47.5 53.5t53.5 32t51.5 15.5t40.5 4q35 0 77 -13.5t79 -46.5t61.5 -89.5t24.5 -142.5q0 -63 -17.5 -123.5t-61.5 -105.5z" />
    <glyph glyph-name="R" unicode="R" horiz-adv-x="688" 
d="M182 321h84q26 0 47.5 -3.5t44 -19t49 -48t63.5 -90.5l68 -108q12 -19 20 -31.5t15.5 -20t15.5 -10.5t19 -3q17 0 30.5 11t13.5 31q0 6 -1 10.5t-4.5 12t-10 19t-17.5 30.5l-65 109q-4 6 -17.5 24.5t-24.5 32.5q-20 26 -41 40.5t-35 22.5q22 4 56 13t70 36q22 16 43.5 52
t21.5 90t-24.5 97t-67.5 69q-18 11 -40.5 17t-43 8.5t-36.5 3t-20 0.5h-229q-27 0 -43 -2.5t-24 -10.5t-10.5 -24t-2.5 -43v-568q0 -13 0.5 -27.5t2.5 -21.5q5 -14 17.5 -22.5t26.5 -8.5q13 0 26.5 7.5t18.5 23.5q2 8 3 17.5t1 31.5v253zM352 642q13 0 31 -0.5t36 -3t35 -8
t29 -15.5q46 -35 46 -93q0 -47 -22 -72t-51.5 -36.5t-59.5 -13.5t-47 -2h-167v244h170z" />
    <glyph glyph-name="S" unicode="S" horiz-adv-x="635" 
d="M586 207q0 16 -4 35.5t-12 38.5t-20.5 36.5t-28.5 29.5q-14 10 -30 19t-38.5 17.5t-53.5 17t-75 19.5q-26 6 -54.5 14t-51.5 21.5t-38 34t-15 52.5q0 22 10 42.5t29.5 36t47 25t62.5 9.5q31 0 58.5 -7.5t46.5 -21.5q23 -17 32 -34t17 -39q6 -17 15 -32.5t32 -15.5
q20 0 31.5 15.5t11.5 31.5q0 17 -6.5 37t-16.5 37q-18 31 -44 51t-55.5 31t-60 15.5t-58.5 4.5q-48 0 -92.5 -12t-78 -36.5t-53.5 -61.5t-20 -86q0 -29 7 -51.5t17 -40t22 -29.5t21 -19q16 -13 32.5 -21.5t39.5 -16t55.5 -15.5t82.5 -19q19 -4 43.5 -11t47 -21t38 -36.5
t15.5 -57.5q0 -33 -15.5 -58t-40.5 -42t-57 -25.5t-65 -8.5q-48 0 -79 13.5t-50 32.5t-28 39t-13 32q-13 35 -21.5 49t-28.5 14q-18 0 -30 -12.5t-12 -28.5q0 -32 17 -71.5t47 -70.5q20 -21 45 -34.5t52 -21.5t54 -11t53 -3q65 0 114.5 17.5t82.5 47.5t50 70t17 85z" />
    <glyph glyph-name="T" unicode="T" horiz-adv-x="583" 
d="M339 639h163q22 0 35 1.5t21 9.5q5 5 9 12.5t4 14.5q0 8 -4 15t-9 12q-8 9 -21 10.5t-35 1.5h-421q-22 0 -35.5 -1.5t-21.5 -10.5q-5 -5 -8.5 -12.5t-3.5 -14.5q0 -8 4 -15t9 -12q8 -8 21 -9.5t35 -1.5h162v-572q0 -25 1.5 -40.5t12.5 -24.5q14 -14 34 -14q12 0 21 4.5
t14 9.5q10 9 11.5 25t1.5 40v572z" />
    <glyph glyph-name="U" unicode="U" horiz-adv-x="729" 
d="M177 648q0 26 -1.5 40.5t-11.5 24.5q-14 15 -35 15q-12 0 -21 -5t-14 -10q-10 -10 -11.5 -24.5t-1.5 -40.5v-373q0 -79 19 -134t55.5 -89t91 -49t126.5 -15q83 0 136.5 24.5t84 65t42.5 92t12 106.5v372q0 26 -1.5 40.5t-11.5 24.5q-14 15 -35 15q-12 0 -21 -5t-14 -10
q-10 -10 -11.5 -24.5t-1.5 -40.5v-381q0 -30 -5.5 -65.5t-24.5 -66t-56 -50.5t-100 -20q-71 0 -109.5 23t-56 55.5t-20.5 67t-3 57.5v380z" />
    <glyph glyph-name="V" unicode="V" horiz-adv-x="635" 
d="M317 102l-195 564q-11 29 -20.5 45.5t-35.5 16.5q-21 0 -34 -14.5t-13 -29.5q0 -10 3 -20t11 -30l205 -562q8 -21 14.5 -37t15 -26.5t20 -15.5t28.5 -5t28.5 5.5t19.5 16t14.5 26.5t14.5 36l210 567q8 20 10.5 28.5t2.5 19.5q0 15 -13 28t-32 13q-24 0 -33.5 -15
t-19.5 -44z" />
    <glyph glyph-name="W" unicode="W" horiz-adv-x="906" 
d="M663 137l-137 506q-5 20 -10 34.5t-12.5 23.5t-20.5 13.5t-34 4.5q-18 0 -29.5 -5.5t-19 -15t-12 -23.5t-8.5 -32l-137 -506l-128 525q-6 29 -15 47.5t-37 18.5q-21 0 -33 -14t-12 -28q0 -11 3.5 -26t4.5 -19l149 -572q5 -19 9.5 -34t11.5 -25.5t17 -16t27 -5.5t27.5 5.5
t17.5 16t12 25t10 32.5l146 538l146 -538q5 -18 10 -33t12 -25t17.5 -15.5t27.5 -5.5q16 0 26.5 6t17.5 16.5t11.5 25.5t9.5 33l149 572q1 5 4.5 19.5t3.5 25.5q0 14 -11.5 28t-34.5 14q-27 0 -36 -19t-15 -47z" />
    <glyph glyph-name="X" unicode="X" horiz-adv-x="604" 
d="M252 374l-205 -289q-16 -23 -21 -34t-5 -21q0 -19 11.5 -30.5t30.5 -11.5t28.5 10.5t27.5 36.5l186 267l167 -256q11 -17 19 -28t14.5 -18t13 -9.5t15.5 -2.5q22 0 34.5 13t12.5 30q0 13 -8.5 28.5t-16.5 28.5l-195 292l181 258q18 26 21.5 36t3.5 17q0 22 -14.5 29.5
t-25.5 7.5q-17 0 -26.5 -10t-28.5 -37l-167 -237l-150 231q-19 29 -29 41t-29 12q-21 0 -33 -12.5t-12 -28.5q0 -7 3.5 -16t7.5 -17t8 -14.5t6 -8.5z" />
    <glyph glyph-name="Y" unicode="Y" horiz-adv-x="615" 
d="M256 307v-240q0 -24 1.5 -40t11.5 -25q16 -14 35 -14q20 0 34 14q11 9 12.5 25t1.5 40v240l214 325q11 16 18 28.5t7 25.5q0 18 -13 30t-31 12q-9 0 -15 -2t-12 -7.5t-12.5 -15.5t-16.5 -25l-184 -286l-179 283q-10 16 -16.5 26t-12.5 16t-12.5 8.5t-15.5 2.5
q-23 0 -35 -14t-12 -30q0 -6 3.5 -16.5t22.5 -40.5z" />
    <glyph glyph-name="Z" unicode="Z" horiz-adv-x="625" 
d="M466 639l-419 -526q-20 -25 -27.5 -36.5t-7.5 -25.5q0 -12 6 -23t15 -18q10 -8 23 -9t44 -1h443q10 0 21.5 0.5t21 4t16 11t6.5 22.5t-6.5 23t-17 11.5t-23.5 4t-25 0.5h-402l425 533q14 18 20.5 29t6.5 26q0 19 -7.5 29.5t-18.5 15t-23.5 5.5t-21.5 1h-401
q-11 0 -22.5 -0.5t-20.5 -4.5t-15 -11.5t-6 -22.5q0 -14 6 -22t15 -11.5t20.5 -4t22.5 -0.5h352z" />
    <glyph glyph-name="bracketleft" unicode="[" horiz-adv-x="344" 
d="M161 648h111h20t18.5 3t14 10t5.5 20t-5.5 20t-14 10.5t-19 4t-19.5 0.5h-119q-26 0 -38.5 -1.5t-23.5 -12.5q-5 -6 -8 -11t-4.5 -11.5t-1.5 -17.5v-26v-756q0 -30 1.5 -43t12.5 -23q12 -11 23 -12.5t39 -1.5h119q10 0 20 0.5t18.5 4t14 10.5t5.5 20t-5.5 19.5t-14 9.5
t-18.5 3.5t-20 0.5h-111v780z" />
    <glyph glyph-name="backslash" unicode="\" horiz-adv-x="281" 
d="M198 28q6 -23 12.5 -32t29.5 -9q12 0 21 8.5t9 19.5q0 5 -1 10t-5 19l-181 644q-6 23 -12.5 31.5t-29.5 8.5q-12 0 -21 -8t-9 -20q0 -5 1 -9.5t5 -18.5z" />
    <glyph glyph-name="bracketright" unicode="]" horiz-adv-x="344" 
d="M183 -132h-111h-20t-18.5 -3t-14 -10t-5.5 -20t5.5 -20t14 -10.5t19 -4t19.5 -0.5h119q26 0 38.5 1.5t23.5 12.5q10 11 12 22.5t2 43.5v756q0 30 -1.5 43t-12.5 23q-12 11 -23 12.5t-39 1.5h-119q-10 0 -20 -0.5t-18.5 -4t-14 -10.5t-5.5 -20t5.5 -19.5t14 -9.5
t18.5 -3.5t20 -0.5h111v-780z" />
    <glyph glyph-name="asciicircum" unicode="^" horiz-adv-x="469" 
d="M116 337l118 292l120 -292h89l-173 391h-71l-173 -391h90z" />
    <glyph glyph-name="underscore" unicode="_" horiz-adv-x="500" 
d="M-6 -199h512v64h-512v-64z" />
    <glyph glyph-name="grave" unicode="`" horiz-adv-x="333" 
d="M214 623l-25 49q-9 17 -15 26.5t-13 14t-17 5t-27 0.5h-24q-17 0 -23.5 -1.5t-6.5 -6.5t3.5 -10t20.5 -23q25 -27 43 -46t31 -30.5t22.5 -16.5t18.5 -5q11 0 16.5 6.5t5.5 11.5t-2 10t-8 16z" />
    <glyph glyph-name="a" unicode="a" 
d="M415 73q4 -14 8.5 -29t11.5 -27.5t16 -20.5t22 -8q17 0 29.5 10.5t12.5 23.5q0 12 -4.5 26.5t-5.5 18.5q-5 12 -9.5 31t-4.5 55q0 9 0.5 31.5t1 48.5t1 49.5t0.5 33.5q0 45 -5 84t-26 68t-63.5 45.5t-116.5 16.5q-71 0 -114.5 -18t-67.5 -41.5t-32 -47t-8 -34.5
q0 -16 11.5 -26.5t27.5 -10.5q20 0 28 12.5t15 29.5q8 20 23.5 34t35 22.5t42 12t45.5 3.5q43 0 66.5 -11t34.5 -30t13.5 -43t3.5 -50q-17 -6 -27.5 -9t-21.5 -6q-8 -2 -28.5 -6t-43.5 -8t-44 -8t-30 -6q-23 -5 -52.5 -12.5t-55.5 -24t-44 -44.5t-18 -72q0 -27 10 -53.5
t31 -47.5t52.5 -34t74.5 -13q42 0 75.5 9.5t59 23t43 28t27.5 24.5zM408 270q0 -44 -3.5 -78.5t-18.5 -60.5q-11 -20 -29 -34t-39.5 -23t-44 -13.5t-43.5 -4.5q-27 0 -46 8.5t-30.5 21t-17 27.5t-5.5 29q0 7 2.5 18t9.5 22.5t20 21.5t35 16q31 8 68 14.5t84 17.5
q20 5 34 9.5t24 8.5z" />
    <glyph glyph-name="b" unicode="b" horiz-adv-x="615" 
d="M157 78q9 -11 23.5 -26.5t36.5 -29.5t52.5 -24t71.5 -10q70 0 115 29t71 71.5t35.5 90t9.5 85.5q0 41 -10.5 88t-37 86.5t-70.5 65.5t-111 26q-43 0 -75.5 -12t-55.5 -28t-36 -30.5t-16 -19.5v215q0 13 -0.5 26t-4.5 23.5t-13 17t-25 6.5q-17 0 -25.5 -6.5t-13 -17
t-5 -23.5t-0.5 -25v-599q0 -22 1.5 -35.5t10.5 -21.5q12 -12 30 -12q16 0 24.5 7t12.5 17t4.5 19.5t0.5 15.5v31zM324 56q-29 0 -58.5 10t-53 33.5t-38.5 61t-15 93.5q0 66 19 106.5t45.5 63t55 30.5t48.5 8q36 0 65 -15t49.5 -42t31 -63.5t10.5 -78.5q0 -58 -15.5 -97.5
t-38.5 -64t-51.5 -35t-53.5 -10.5z" />
    <glyph glyph-name="c" unicode="c" 
d="M516 152q0 19 -13 29.5t-27 10.5q-11 0 -17.5 -5t-11.5 -11q-2 -2 -5.5 -8.5t-7.5 -14t-8 -14t-5 -9.5q-20 -36 -55.5 -55t-77.5 -19q-74 0 -116.5 54.5t-42.5 151.5q0 93 44 146.5t117 53.5q33 0 56.5 -9.5t39 -23t25 -27.5t14.5 -22q7 -13 13 -20t11 -10.5t9.5 -4
t8.5 -0.5q15 0 27 10.5t12 27.5q0 13 -5.5 25.5t-12.5 22.5q-11 17 -27 34.5t-39.5 32t-56 23.5t-76.5 9q-74 0 -121.5 -25.5t-75.5 -65.5t-39 -88t-11 -93q0 -58 11.5 -96.5t25.5 -62.5q9 -17 24.5 -36t40.5 -36t61.5 -28t87.5 -11q63 0 105.5 21.5t69 49.5t37.5 55t11 38z
" />
    <glyph glyph-name="d" unicode="d" horiz-adv-x="615" 
d="M458 78v-31q0 -6 0.5 -15.5t4.5 -19.5t12.5 -17t24.5 -7q18 0 30 12q9 8 10.5 21.5t1.5 35.5v599q0 12 -0.5 25t-5 23.5t-13.5 17t-25 6.5t-25 -6.5t-13 -17t-4.5 -23.5t-0.5 -26v-215q-3 5 -16 19.5t-36 30.5t-55.5 28t-75.5 12q-67 0 -111 -26t-70.5 -65.5t-37 -86.5
t-10.5 -88q0 -38 9.5 -85.5t35.5 -90t70.5 -71.5t115.5 -29q41 0 71.5 10t52.5 24t36.5 29.5t23.5 26.5zM291 56q-26 0 -54 10.5t-51 35t-38.5 64t-15.5 97.5q0 42 10.5 78.5t31 63.5t49.5 42t65 15q20 0 48.5 -8t55 -30.5t45.5 -63t19 -106.5q0 -56 -15 -93.5t-38.5 -61
t-53 -33.5t-58.5 -10z" />
    <glyph glyph-name="e" unicode="e" 
d="M444 242q13 0 26.5 1t25 6t18.5 16.5t7 32.5q0 11 -3 32.5t-11.5 47.5t-24.5 53t-42 49t-63 36t-88 14q-63 0 -109 -21t-76 -57.5t-45 -86t-15 -105.5q0 -57 14.5 -107t45 -86.5t77 -57.5t110.5 -21q48 0 82.5 11t58.5 27t38.5 34t23.5 32q6 10 11.5 22t5.5 24
q0 13 -9.5 23t-23.5 10q-16 0 -24 -9.5t-13 -16.5q-11 -17 -23.5 -34t-29 -30t-39 -21t-54.5 -8q-31 0 -59.5 10t-51 32.5t-36.5 59t-15 88.5h311zM134 302q2 17 6.5 40t17.5 46q7 13 18 27t27 25t36.5 18.5t46.5 7.5q43 0 73 -18.5t47 -47.5t20.5 -52.5t5.5 -45.5h-298z
" />
    <glyph glyph-name="f" unicode="f" horiz-adv-x="302" 
d="M97 518h-45q-5 0 -13 -0.5t-16.5 -3.5t-14.5 -9t-6 -18t6 -19t14 -10t16 -3.5t12 -0.5h47v-395q0 -22 1.5 -36t10.5 -23q12 -12 31 -12q11 0 18.5 3.5t12.5 8.5q9 8 11 22.5t2 36.5v395h54q7 0 16 0.5t17.5 3.5t14 10t5.5 19t-5.5 18t-13.5 9t-17 3.5t-17 0.5h-54v41
q0 23 2 41.5t10 31t22.5 19.5t40.5 7q3 0 9.5 -1t14 -1.5t14 -1.5t9.5 -1q12 0 20.5 9.5t8.5 23.5q0 16 -9 22.5t-14 8.5q-10 4 -30 7.5t-43 3.5q-14 0 -30 -2t-32.5 -7t-31.5 -15.5t-26 -26.5q-12 -17 -17 -44t-5 -66v-49z" />
    <glyph glyph-name="g" unicode="g" horiz-adv-x="615" 
d="M457 436q-9 12 -23.5 28t-36.5 30.5t-52.5 25t-71.5 10.5q-62 0 -105 -24t-71 -62.5t-40.5 -87t-12.5 -96.5q0 -13 2.5 -38t10.5 -55t23.5 -61t41 -56.5t64 -41.5t91.5 -16q35 0 63.5 9t50 21.5t37.5 26.5t26 24q0 -32 -0.5 -55t-2.5 -40.5t-6.5 -32t-11.5 -28.5
q-16 -30 -54 -46t-92 -16q-32 0 -53.5 5.5t-36.5 13.5t-24.5 18.5t-15.5 20.5q-10 16 -16.5 25t-11.5 14t-10 6.5t-13 1.5q-19 0 -29.5 -12t-10.5 -25q0 -10 9 -32.5t33.5 -45.5t67.5 -40.5t111 -17.5q16 0 48 2.5t68 14.5t68.5 36.5t50.5 68.5q9 23 14 61t5 86v396
q0 15 -0.5 29.5t-4.5 25t-12.5 17t-24.5 6.5q-15 0 -23.5 -6.5t-12.5 -15.5t-5 -18t-1 -14v-40zM293 60q-30 0 -59 10.5t-51.5 34.5t-36 62t-13.5 92q0 65 17.5 105t42.5 61.5t52.5 29t47.5 7.5q35 0 64.5 -13.5t51 -39.5t33.5 -64.5t12 -89.5q0 -55 -15 -92t-38.5 -60
t-52 -33t-55.5 -10z" />
    <glyph glyph-name="h" unicode="h" horiz-adv-x="573" 
d="M503 333q0 10 -0.5 26.5t-4 35t-11 38t-20.5 34.5q-26 30 -60.5 46.5t-82.5 16.5q-31 0 -55.5 -7t-44 -19t-35 -27.5t-28.5 -32.5v212q0 13 -0.5 26t-5 23t-13.5 16.5t-26 6.5q-16 0 -24.5 -6.5t-12.5 -17t-4.5 -23t-0.5 -25.5v-596q0 -12 0.5 -25t4.5 -23.5t12.5 -17
t24.5 -6.5q12 0 20 4.5t13 8.5q9 9 10.5 22.5t1.5 35.5v173q0 40 2 66t5 42.5t7.5 27t9.5 20.5q17 33 51.5 52t71.5 19q27 0 52.5 -12.5t39.5 -36.5q11 -18 13.5 -47t2.5 -51v-252q0 -20 0.5 -30t3.5 -18q5 -12 16 -18t22 -6t21 4.5t15 11.5q7 9 8 20t1 36v273z" />
    <glyph glyph-name="i" unicode="i" horiz-adv-x="240" 
d="M164 459q0 13 -0.5 28t-5.5 23t-12.5 14t-24.5 6q-20 0 -33 -13q-8 -9 -10 -22t-2 -36v-400q0 -12 1 -24.5t5 -23t13 -17t25 -6.5q12 0 23.5 7t16.5 21q2 5 3 13.5t1 29.5v400zM168 665q0 20 -14 34t-34 14t-34 -14t-14 -34t14 -34.5t34 -14.5t34 14.5t14 34.5z" />
    <glyph glyph-name="j" unicode="j" horiz-adv-x="240" 
d="M164 459q0 12 -0.5 24.5t-5 23t-13.5 17t-25 6.5q-13 0 -22.5 -6.5t-13.5 -12.5q-5 -10 -6 -20.5t-1 -31.5v-489q0 -30 -3 -50t-9 -31.5t-16 -16t-24 -4.5q-4 0 -17.5 1.5t-18.5 1.5q-14 0 -22 -4.5t-11.5 -10t-4.5 -11.5t-1 -9q0 -17 10 -26t23.5 -14t27 -6t21.5 -1
q12 0 27 2t30.5 8t30.5 17t26 30q4 7 7.5 15.5t5.5 22.5t3.5 35t1.5 53v487zM72 665q0 -20 14.5 -34.5t34.5 -14.5t34 14.5t14 34.5t-14 34t-34 14t-34.5 -14t-14.5 -34z" />
    <glyph glyph-name="k" unicode="k" horiz-adv-x="531" 
d="M244 269l160 -239q14 -22 24.5 -32t25.5 -10q14 0 29 11t15 29q0 8 -4 18.5t-23 37.5l-167 241l135 127q13 12 20.5 21t7.5 20q0 14 -12 26.5t-29 12.5q-11 0 -19 -6t-31 -28l-208 -200v354q0 16 -0.5 29t-2.5 20q-5 12 -15 19.5t-25 7.5q-17 0 -25.5 -8t-13 -20.5
t-5 -27.5t-0.5 -28v-580q0 -16 0.5 -29.5t4.5 -24t12.5 -16.5t24.5 -6q17 0 26 6.5t13.5 17t5 23.5t0.5 26v138z" />
    <glyph glyph-name="l" unicode="l" horiz-adv-x="240" 
d="M164 656q0 23 -2 36.5t-10 22.5q-15 13 -32 13q-11 0 -19 -4.5t-13 -9.5q-8 -8 -9.5 -21.5t-1.5 -36.5v-597q0 -12 0.5 -25t4.5 -23t13 -16.5t25 -6.5q11 0 19 4t13 9q8 9 10 22t2 36v597z" />
    <glyph glyph-name="m" unicode="m" horiz-adv-x="833" 
d="M768 356q0 19 -2.5 45.5t-16.5 55.5q-11 21 -27.5 35t-36 22.5t-39.5 12t-38 3.5q-36 0 -63 -10.5t-46.5 -24.5t-31.5 -30t-19 -26q-4 11 -9.5 22.5t-17.5 24.5q-14 15 -31 23.5t-33.5 13t-31.5 6t-24 1.5q-56 0 -95 -24.5t-62 -59.5q0 31 -0.5 40.5t-2.5 17.5t-11.5 17
t-24.5 9t-22.5 -6.5t-11.5 -16.5t-4.5 -23t-0.5 -25v-399q0 -23 1.5 -36.5t9.5 -22.5q15 -13 33 -13q11 0 19 4t13 9q8 9 9.5 22.5t1.5 36.5v209q0 34 3 64t19 61q12 26 42 43t65 17q34 0 53 -13.5t27.5 -32.5t10 -39t1.5 -32v-277q0 -23 1.5 -36.5t9.5 -22.5q15 -13 33 -13
q11 0 19 4t13 9q8 9 9.5 22.5t1.5 36.5v241q0 23 3 47.5t20 51.5q16 27 45.5 40.5t58.5 13.5q35 0 54 -13.5t27.5 -33t10 -41.5t1.5 -39v-266q0 -12 0.5 -25t5 -23.5t13 -17.5t25.5 -7q11 0 18.5 4t13.5 9q8 9 9.5 22.5t1.5 36.5v296z" />
    <glyph glyph-name="n" unicode="n" horiz-adv-x="573" 
d="M503 331q0 12 -0.5 29.5t-3.5 36t-10 36.5t-20 33q-27 31 -62.5 47.5t-83.5 16.5q-35 0 -61 -9t-45.5 -22.5t-33.5 -29t-24 -28.5q0 16 -0.5 27t-1 19t-2.5 13.5t-5 10.5q-3 7 -12.5 13t-21.5 6q-11 0 -18.5 -4t-12.5 -8q-8 -8 -9.5 -22t-1.5 -35v-402q0 -22 1.5 -36.5
t10.5 -22.5q14 -12 31 -12t31 12q9 8 11 22.5t2 36.5v165q0 41 1.5 67t4.5 43t7.5 27.5t10.5 20.5q18 33 52 52.5t72 19.5q27 0 52 -12.5t39 -37.5q8 -14 12 -37t4 -61v-247q0 -22 1.5 -36.5t10.5 -22.5q13 -12 32 -12q17 0 31 12q9 8 10.5 22.5t1.5 36.5v272z" />
    <glyph glyph-name="o" unicode="o" horiz-adv-x="573" 
d="M530 259q0 72 -19.5 123t-53 84t-78 48.5t-93.5 15.5q-115 0 -179.5 -72t-64.5 -209q0 -53 15 -100.5t45.5 -83t76.5 -56.5t107 -21q49 0 93 15.5t77.5 48.5t53.5 84t20 123zM441 259q0 -93 -40 -148t-114 -55t-115 54.5t-41 148.5q0 92 40.5 147.5t115.5 55.5
q70 0 112 -53t42 -150z" />
    <glyph glyph-name="p" unicode="p" horiz-adv-x="615" 
d="M157 440v31q0 6 -0.5 15.5t-4.5 19.5t-12.5 17t-24.5 7q-18 0 -30 -12q-9 -8 -10.5 -21.5t-1.5 -35.5v-599q0 -12 0.5 -25t5 -23.5t13 -17t25.5 -6.5q16 0 25 6.5t13 17t4.5 23.5t0.5 26v215q3 -5 16 -19.5t36 -30.5t55.5 -28t75.5 -12q67 0 111 26t70.5 65.5t37 86.5
t10.5 88q0 25 -4 55t-14 61t-27 59.5t-42.5 51t-61 36t-82.5 13.5q-41 0 -71.5 -10t-52.5 -24t-36.5 -29.5t-23.5 -26.5zM324 462q25 0 53.5 -10.5t51.5 -35t38.5 -64t15.5 -97.5q0 -42 -10.5 -78.5t-31 -63.5t-49.5 -42t-65 -15q-20 0 -48.5 7.5t-55 30t-45.5 63.5t-19 107
q0 55 15 93t38.5 61.5t53 33.5t58.5 10z" />
    <glyph glyph-name="q" unicode="q" horiz-adv-x="615" 
d="M457 440q-9 11 -23.5 26.5t-36.5 29.5t-52.5 24t-71.5 10q-47 0 -82.5 -13.5t-61 -36t-42.5 -51t-27 -59.5t-14 -61t-4 -55q0 -41 10.5 -88t37 -86.5t70.5 -65.5t111 -26q43 0 75.5 12t55.5 28t36 30.5t16 19.5v-215q0 -13 0.5 -26t4.5 -23.5t13 -17t25 -6.5t25 6.5
t13.5 17t5 23.5t0.5 25v599q0 22 -1.5 35.5t-10.5 21.5q-12 12 -30 12q-16 0 -24.5 -7t-12.5 -17t-4.5 -19.5t-0.5 -15.5v-31zM290 462q29 0 58.5 -10t53 -33.5t38.5 -61.5t15 -93q0 -66 -19 -107t-45.5 -63.5t-55 -30t-48.5 -7.5q-36 0 -65 15t-49.5 42t-31 63.5
t-10.5 78.5q0 58 15.5 97.5t38.5 64t51 35t54 10.5z" />
    <glyph glyph-name="r" unicode="r" horiz-adv-x="375" 
d="M77 59q0 -23 1.5 -37t11.5 -22q12 -12 31 -12q5 0 12.5 1.5t14 7t11.5 15t5 26.5v188q0 45 4 85t16 70t33.5 47.5t56.5 17.5q14 0 24 -2.5t18 -5t15 -5t15 -2.5q10 0 22.5 10.5t12.5 29.5q0 14 -10 25t-25.5 18.5t-33.5 11.5t-34 4q-24 0 -42 -7.5t-32 -20t-26.5 -30
t-25.5 -37.5v40q0 9 -0.5 18.5t-4 18t-11 13.5t-21.5 5t-22 -5t-11.5 -13.5t-4 -18t-0.5 -18.5v-416z" />
    <glyph glyph-name="s" unicode="s" horiz-adv-x="510" 
d="M467 151q0 40 -18 66.5t-45.5 43.5t-60 27t-62.5 16q-45 10 -74 19.5t-45.5 20.5t-23 23.5t-6.5 27.5q0 35 32.5 54t80.5 19q50 0 77 -18t38 -42q10 -21 17.5 -30t25.5 -9q13 0 20 4.5t11 10.5t5 12t1 9q0 7 -7 27.5t-28 42t-59.5 38.5t-102.5 17q-38 0 -67 -6.5
t-51 -18.5q-36 -20 -56 -54t-20 -69q0 -31 13.5 -54.5t31.5 -38.5q11 -9 22.5 -16t29.5 -14t44.5 -15t66.5 -18q19 -5 40.5 -11t38.5 -16.5t28.5 -26t11.5 -39.5q0 -32 -30.5 -57.5t-90.5 -25.5t-90.5 24t-45.5 59q-6 14 -14.5 24t-25.5 10q-16 0 -27 -11t-11 -25
q0 -27 14.5 -50t29.5 -38q28 -27 66.5 -41t97.5 -14q73 0 116.5 19t66 45.5t29 54t6.5 44.5z" />
    <glyph glyph-name="t" unicode="t" horiz-adv-x="302" 
d="M90 518h-25q-4 0 -12 -0.5t-15.5 -3.5t-13.5 -9t-6 -18q0 -1 0.5 -6t4.5 -11t11.5 -10.5t22.5 -4.5h33v-315q0 -24 2 -50.5t13.5 -48t36 -36t70.5 -14.5q20 0 38 2t31.5 7t21 13t7.5 21q0 15 -8.5 23t-21.5 8q-3 0 -10 -1t-15 -2t-15.5 -2t-10.5 -1q-18 0 -28.5 6.5
t-16 18t-6.5 27.5t-1 36v308h49q20 0 35.5 7.5t15.5 24.5q0 12 -5.5 18t-13.5 9t-17.5 3.5t-17.5 0.5h-46v93q0 14 -0.5 27.5t-5 24.5t-13.5 18t-25 7q-13 0 -22.5 -6.5t-13.5 -13.5q-5 -10 -6 -21.5t-1 -40.5v-88z" />
    <glyph glyph-name="u" unicode="u" horiz-adv-x="573" 
d="M69 182q0 -30 4 -57t21 -61q10 -21 28 -35.5t39 -23.5t43.5 -13t42.5 -4q37 0 64 9.5t47 23t33.5 29.5t23.5 28q0 -33 1 -47t6 -24q3 -7 12.5 -13t22.5 -6q10 0 17.5 3.5t12.5 8.5q9 8 10.5 22t1.5 35v401q0 23 -1.5 37t-10.5 23q-15 12 -32 12q-11 0 -18.5 -4t-12.5 -9
q-9 -8 -10.5 -22.5t-1.5 -36.5v-162q0 -44 -2 -71t-5 -44t-7.5 -26.5t-8.5 -18.5q-17 -32 -51.5 -52t-72.5 -20q-27 0 -52 13.5t-40 38.5q-13 21 -15 47.5t-2 52.5v242q0 23 -1.5 37t-10.5 23q-14 12 -31 12q-19 0 -32 -13q-9 -8 -10.5 -22t-1.5 -37v-276z" />
    <glyph glyph-name="v" unicode="v" horiz-adv-x="521" 
d="M261 99l-142 377q-9 26 -18 40t-30 14t-32 -13t-11 -25q0 -10 2.5 -18t10.5 -28l158 -394q12 -29 23.5 -46.5t38.5 -17.5q26 0 37.5 17.5t23.5 46.5l158 394q8 20 10.5 28t2.5 18q0 11 -11 24.5t-32 13.5t-30 -14t-18 -40z" />
    <glyph glyph-name="w" unicode="w" horiz-adv-x="750" 
d="M375 401l95 -341q4 -15 8.5 -28t11 -22.5t16.5 -15.5t25 -6q29 0 39.5 18t21.5 51l133 393q6 18 8 26t2 16q0 14 -11.5 26t-28.5 12q-23 0 -31.5 -14.5t-16.5 -40.5l-115 -373l-101 362q-8 29 -18 47.5t-38 18.5t-38 -18.5t-18 -47.5l-101 -362l-115 373
q-8 26 -16.5 40.5t-31.5 14.5q-18 0 -29 -12t-11 -26q0 -8 2.5 -16t7.5 -26l133 -393q11 -33 21.5 -51t39.5 -18q15 0 25 6t16.5 15.5t11 22.5t8.5 28z" />
    <glyph glyph-name="x" unicode="x" horiz-adv-x="510" 
d="M255 211l134 -186q20 -28 31.5 -32.5t20.5 -4.5q15 0 27.5 10.5t12.5 26.5q0 10 -7.5 22.5t-14.5 21.5l-151 206l135 174q17 22 20 31t3 15q0 13 -11.5 24t-29.5 11q-8 0 -19.5 -4.5t-31.5 -32.5l-119 -160l-121 160q-13 18 -22.5 27.5t-26.5 9.5q-22 0 -31.5 -13
t-9.5 -24q0 -6 3 -13t6.5 -13.5t7 -11.5t4.5 -6l137 -178l-155 -207q-13 -18 -15.5 -26t-2.5 -13q0 -14 11 -25.5t30 -11.5q17 0 27 9t22 26z" />
    <glyph glyph-name="y" unicode="y" horiz-adv-x="510" 
d="M210 0l-27 -69q-11 -26 -25.5 -45t-46.5 -19q-2 0 -8.5 0.5t-13.5 1t-13 1t-9 0.5q-17 0 -25.5 -11.5t-8.5 -23.5q0 -15 8.5 -23.5t21 -13.5t27 -6.5t27.5 -1.5q31 0 53.5 7t40 22.5t31 40t27.5 58.5l208 533q6 16 9 25.5t3 17.5q0 10 -9.5 23t-29.5 13q-10 0 -16 -2.5
t-11 -9t-10 -17.5t-11 -27l-147 -382l-142 387q-8 22 -17 36.5t-31 14.5q-19 0 -31 -13t-12 -27q0 -9 3 -18t8 -23z" />
    <glyph glyph-name="z" unicode="z" horiz-adv-x="510" 
d="M132 68l304 356q19 22 26 32t7 22q0 15 -7 23t-18.5 12t-25.5 4.5t-29 0.5h-303q-10 0 -20 -0.5t-18.5 -3.5t-13.5 -10t-5 -20t6.5 -20t18 -10t27 -3.5t33.5 -0.5h239q-3 -6 -6 -11.5t-9 -14t-16.5 -20.5t-27.5 -31l-257 -287q-14 -16 -19.5 -27.5t-5.5 -20.5
q0 -16 8 -24t19.5 -11t22.5 -3h20h357q10 0 20.5 0.5t19 4t14 10.5t5.5 21q0 13 -5.5 19.5t-14 9.5t-19.5 3h-20h-307z" />
    <glyph glyph-name="braceleft" unicode="{" horiz-adv-x="333" 
d="M109 259q39 18 59.5 41t30 56.5t11 80.5t1.5 114q0 18 1.5 36t7.5 32.5t17.5 23t32.5 8.5q22 0 31.5 7.5t9.5 35.5q0 13 -4 20t-10 10t-12.5 3.5t-10.5 0.5q-53 0 -82 -18t-43 -47t-17 -65.5t-3 -72.5q0 -57 -1.5 -96t-9 -64.5t-22.5 -39.5t-43 -22q-19 -5 -22 -16
t-3 -28t3 -28t22 -16q28 -7 43 -21t22 -40.5t8.5 -67t2.5 -101.5q0 -28 2.5 -62t16 -63.5t41.5 -49.5t79 -20q25 0 34 8t9 34q0 20 -9.5 27t-19.5 8q-20 0 -33.5 4t-22 15t-12 30.5t-3.5 50.5q0 64 -1 111.5t-11 82t-30.5 58.5t-59.5 40z" />
    <glyph glyph-name="bar" unicode="|" horiz-adv-x="260" 
d="M92 -161q0 -12 0.5 -21.5t4.5 -15.5t12.5 -9t24.5 -3q25 0 30 14t5 35v840q0 25 -6 37t-37 12q-13 0 -20 -3.5t-10 -10.5t-3.5 -16t-0.5 -19v-840z" />
    <glyph glyph-name="braceright" unicode="}" horiz-adv-x="333" 
d="M225 259q-39 -18 -59.5 -41t-30 -56.5t-11 -80.5t-1.5 -114q0 -18 -1.5 -36t-7.5 -32.5t-17.5 -23t-32.5 -8.5q-22 0 -31.5 -7.5t-9.5 -35.5q0 -13 4 -20t10 -10t12.5 -3.5t10.5 -0.5q53 0 82 18t43 47t17 65.5t3 72.5q0 57 1.5 96t9 64.5t22.5 39.5t43 22q19 5 22 16
t3 28t-3 28t-22 16q-28 7 -43 21t-22 40.5t-8.5 67t-2.5 101.5q0 28 -2.5 62t-16 63.5t-41.5 49.5t-79 20q-25 0 -34 -8t-9 -34q0 -20 9.5 -27t19.5 -8q20 0 33.5 -4t22 -15t12 -30.5t3.5 -50.5q0 -64 1 -111.5t11 -82t30.5 -58.5t59.5 -40z" />
    <glyph glyph-name="asciitilde" unicode="~" horiz-adv-x="583" 
d="M42 272q12 11 25 23t28.5 21.5t33.5 15.5t40 6q29 0 56 -9.5t62 -25.5q32 -14 59.5 -22t59.5 -8q51 0 82 18t53 38v103q-3 -4 -14.5 -15t-28.5 -22.5t-38 -20.5t-45 -9q-11 0 -21 1.5t-21.5 5.5t-26 10t-35.5 15q-54 23 -85 28.5t-48 5.5q-16 0 -33.5 -3t-35.5 -9.5
t-35 -18t-32 -28.5v-100z" />
    <glyph glyph-name="exclamdown" unicode="&#xa1;" horiz-adv-x="333" 
d="M200 258q-1 12 -2 23t-4 19.5t-9.5 14t-18.5 5.5q-11 0 -17.5 -5.5t-9.5 -14t-4 -19.5t-2 -23l-15 -291q0 -8 -0.5 -27t-0.5 -41v-41t2 -27q3 -13 8.5 -21t12.5 -12.5t14.5 -6t12.5 -1.5t12 1.5t14 6t12.5 12.5t8.5 21q1 7 1.5 26t0.5 41q0 21 -0.5 40.5t-0.5 28.5z
M167 420q23 0 39 16t16 39t-16 39t-39 16t-39 -16t-16 -39t16 -39t39 -16z" />
    <glyph glyph-name="cent" unicode="&#xa2;" 
d="M368 442q11 -7 25 -18.5t32 -43.5q14 -26 24 -30.5t18 -4.5q17 0 28 12t11 25q0 6 -5 22t-18 35t-35.5 39.5t-57.5 35.5l42 138q1 3 4.5 15.5t3.5 20.5t-7 14.5t-16 6.5q-12 0 -19 -11t-14 -33l-43 -139q-8 2 -19.5 3t-28.5 1q-46 0 -79 -9t-56.5 -22.5t-39.5 -30
t-27 -32.5q-28 -39 -38.5 -85t-10.5 -94q0 -29 5 -64.5t20.5 -70.5t43 -66t72.5 -50l-39 -129q-5 -17 -6.5 -23.5t-1.5 -14.5q0 -9 6 -17t17 -8q14 0 20 13.5t12 32.5l41 133q10 -2 22 -3.5t30 -1.5q68 0 108.5 18.5t65.5 43.5q4 4 13.5 14.5t19.5 25t17.5 31.5t7.5 33
q0 13 -11 25.5t-29 12.5q-11 0 -18 -5.5t-13 -14.5t-11.5 -19.5t-11.5 -20.5q-9 -14 -20.5 -27.5t-27.5 -24t-36.5 -17.5t-46.5 -7q-23 0 -39 3zM206 79q-43 29 -60 78.5t-17 101.5q0 58 15 97t38.5 62.5t52.5 33.5t57 10q11 0 17 -0.5t11 -2.5z" />
    <glyph glyph-name="sterling" unicode="&#xa3;" 
d="M194 390q-8 27 -13.5 46.5t-9 35t-5 28.5t-1.5 27q0 58 36.5 95.5t96.5 37.5q29 0 50.5 -9.5t37 -25t25.5 -34.5t16 -38q4 -14 12.5 -27.5t31.5 -13.5q17 0 30 11.5t13 30.5q0 24 -13 54t-39.5 57t-67.5 45t-98 18q-51 0 -92 -16t-69.5 -44t-44 -65.5t-15.5 -80.5
q0 -13 1.5 -25t4.5 -27t8 -34t13 -46h-41q-7 0 -16 -0.5t-16.5 -3.5t-12.5 -10t-5 -19t5 -19t13 -10t17.5 -3.5t18.5 -0.5h55q4 -14 7 -31.5t3 -40.5q0 -13 -2.5 -30.5t-10.5 -38t-23.5 -44.5t-41.5 -50q-13 -12 -20.5 -19.5t-11 -12.5t-4.5 -9t-1 -10q0 -22 14.5 -33
t25.5 -11q4 0 7.5 0.5t9.5 2.5t15 6t24 11q18 8 35 13t39 5q8 0 17 -0.5t21.5 -3t30 -7t43.5 -11.5q27 -8 45.5 -12.5t31.5 -6.5t22.5 -2.5t18.5 -0.5q22 0 46 4t44 12.5t33 21t13 29.5q0 16 -10 27.5t-27 11.5q-8 0 -13.5 -2t-12.5 -4q-17 -6 -27 -9.5t-16.5 -5.5
t-11.5 -2.5t-12 -0.5q-19 0 -34.5 3t-25.5 5q-21 5 -37 8.5t-29 5.5t-25.5 3t-26.5 1q-27 0 -48 -2.5t-30 -4.5q7 12 15 27t15.5 35.5t12.5 47t5 60.5q0 15 -1 33t-3 32h104q9 0 19 0.5t18 3.5t13.5 10t5.5 19t-5.5 19t-14 10t-19 3.5t-19.5 0.5h-117z" />
    <glyph glyph-name="currency" unicode="&#xa4;" horiz-adv-x="552" 
d="M103 468q-13 -22 -23.5 -47t-10.5 -67q0 -41 10.5 -66t23.5 -47l-32 -34q-15 -17 -19 -21.5t-4 -12.5q0 -6 4.5 -14t11 -15t14.5 -12t14 -5q8 0 13.5 4t21.5 19l34 32q23 -14 48.5 -24t66.5 -10t66.5 10.5t48.5 23.5l34 -32q16 -15 21 -19t12 -4q6 0 9.5 1.5t6.5 3.5
q14 12 22 20.5t8 19.5q0 8 -4 13t-19 22l-32 34q13 22 23.5 47t10.5 66q0 42 -10.5 67t-23.5 47l32 34q15 17 19 21.5t4 11.5q0 6 -4.5 14t-11 15t-14.5 12t-14 5q-8 0 -13.5 -3.5t-21.5 -18.5l-34 -32q-23 13 -48.5 23.5t-66.5 10.5t-66.5 -10.5t-48.5 -23.5l-34 32
q-16 15 -21 18.5t-12 3.5q-12 0 -16 -4q-14 -12 -22 -20.5t-8 -19.5q0 -8 4 -13t19 -22zM149 354q0 27 10 50t27 40t40 27t49 10t49.5 -10t41 -27.5t27.5 -40.5t10 -49t-10 -49t-27.5 -40t-41 -27t-49.5 -10t-49 10t-40 27t-27 40t-10 49z" />
    <glyph glyph-name="yen" unicode="&#xa5;" horiz-adv-x="552" 
d="M233 159v-98q0 -24 1.5 -37.5t10.5 -22.5q13 -13 32 -13q12 0 20 4.5t13 9.5q8 8 9 21.5t1 37.5v98h153q22 0 35.5 4.5t13.5 30.5q0 24 -14.5 29.5t-34.5 5.5h-153v70h153h21t15.5 3t9.5 10.5t3 22.5q0 25 -14.5 29.5t-34.5 4.5h-118l163 286l12 22.5t4 19.5
q0 17 -14.5 24t-28.5 7q-27 0 -38 -13t-22 -32l-115 -215q-10 -19 -16 -30.5t-10.5 -19t-7.5 -14t-7 -15.5q-5 12 -9 20.5l-8 17t-8.5 17t-11.5 20.5l-123 220q-12 21 -22.5 32.5t-33.5 11.5q-21 0 -31 -10t-10 -23q0 -5 2 -13.5t13 -26.5l164 -286h-117q-24 0 -36.5 -5
t-12.5 -34q0 -13 4 -19.5t10.5 -9t15.5 -2.5h19h153v-70h-153q-22 0 -35.5 -6t-13.5 -32q0 -24 14.5 -28t34.5 -4h153z" />
    <glyph glyph-name="brokenbar" unicode="&#xa6;" horiz-adv-x="260" 
d="M169 679q0 25 -6 37t-37 12q-13 0 -20 -3.5t-10 -10.5t-3.5 -16t-0.5 -19v-288q0 -12 0.5 -21.5t4.5 -15.5t12.5 -9t24.5 -3q25 0 30 14t5 35v288zM169 126q0 25 -6 37.5t-37 12.5q-13 0 -20 -4t-10 -10.5t-3.5 -16t-0.5 -19.5v-287q0 -12 0.5 -21.5t4.5 -15.5t12.5 -9
t24.5 -3q25 0 30 14t5 35v287z" />
    <glyph glyph-name="section" unicode="&#xa7;" 
d="M408 84q13 6 32 16t37 27t31 42t13 60q0 25 -7 45t-16.5 35t-21 25.5t-20.5 16.5q-50 36 -182 116q-25 15 -44 27.5t-32 25t-19.5 26t-6.5 30.5q0 10 5 24t17 27t32.5 21.5t50.5 8.5q25 0 43 -6.5t31.5 -17t22.5 -24t16 -28.5t16 -27t28 -12q16 0 28.5 11.5t12.5 27.5
q0 17 -11 42t-35 48.5t-61.5 40t-89.5 16.5q-54 0 -91 -15t-59.5 -38t-32 -50t-9.5 -51q0 -27 7.5 -47t18.5 -35t22.5 -24.5t19.5 -15.5q-11 -5 -30 -14.5t-37 -26t-31.5 -41t-13.5 -58.5q0 -23 6.5 -42t15 -33.5t18 -24.5t15.5 -16q7 -7 17 -14.5t30 -21t53.5 -35
t87.5 -55.5q31 -20 53 -34.5t36.5 -28.5t21.5 -28t7 -32q0 -11 -5 -25.5t-18.5 -28.5t-36 -23.5t-56.5 -9.5q-32 0 -53 8t-34.5 21t-21.5 29.5t-14 33.5q-9 24 -20 33.5t-26 9.5q-21 0 -32 -14t-11 -27q0 -10 8.5 -37t31.5 -55.5t65 -50.5t109 -22q40 0 76 11.5t63 32.5
t43 51t16 68q0 29 -8.5 50.5t-21 37t-26 26.5t-23.5 18zM206 412q59 -36 92.5 -57t51.5 -33t26 -18.5t16 -13.5q16 -14 30 -34t14 -43q0 -22 -11.5 -35.5t-28 -22t-34 -12.5t-30.5 -6q-65 40 -106.5 66t-65.5 45.5t-33 35.5t-9 36q0 21 9.5 36.5t23.5 26t29 17.5t26 12z" />
    <glyph glyph-name="dieresis" unicode="&#xa8;" horiz-adv-x="333" 
d="M131 640q0 20 -13.5 33.5t-33.5 13.5t-33.5 -13.5t-13.5 -33.5t13.5 -33.5t33.5 -13.5t33.5 13.5t13.5 33.5zM296 640q0 20 -13.5 33.5t-33.5 13.5t-33.5 -13.5t-13.5 -33.5t13.5 -33.5t33.5 -13.5t33.5 13.5t13.5 33.5z" />
    <glyph glyph-name="copyright" unicode="&#xa9;" horiz-adv-x="740" 
d="M488 300q-8 -32 -24 -50.5t-34.5 -28t-35.5 -12.5t-27 -3q-25 0 -47.5 9t-39 27.5t-26.5 47t-10 67.5q0 27 7 55t22 50t39.5 36t59.5 14q26 0 46 -8.5t34 -20.5q14 -13 20.5 -25t10.5 -21l58 14q-18 60 -64 87.5t-103 27.5q-93 0 -145 -55.5t-52 -151.5q0 -50 14.5 -89
t40 -66t61.5 -41.5t78 -14.5q29 0 57.5 8t52 24.5t41.5 41.5t26 60zM370 728q-76 0 -143 -28.5t-117.5 -78.5t-79.5 -117t-29 -144t29 -144t79 -117t117 -79t144 -29q76 0 143.5 29t117.5 79.5t79 117.5t29 143t-29 143.5t-79.5 117t-117.5 78.5t-143 29zM370 666
q63 0 119 -24t97.5 -65t66 -97t24.5 -120t-24 -120t-65.5 -97.5t-97.5 -65.5t-120 -24t-120 24t-97.5 65.5t-65.5 97.5t-24 120t24.5 120t66 97t97.5 65t119 24z" />
    <glyph glyph-name="ordfeminine" unicode="&#xaa;" horiz-adv-x="365" 
d="M323 594q0 27 -3 51.5t-17 43t-42 29t-78 10.5q-46 0 -75 -11t-45 -26t-21.5 -30t-5.5 -24q0 -11 8.5 -19t21.5 -8q16 0 22.5 9t14.5 25q8 14 27.5 23.5t57.5 9.5q24 0 37.5 -5.5t20.5 -14.5t8.5 -20.5t2.5 -24.5q-8 -3 -14.5 -5.5t-14 -4.5t-18 -4t-26.5 -4
q-29 -4 -57.5 -9.5t-51.5 -16.5t-37.5 -29.5t-14.5 -49.5q0 -18 7 -34.5t21 -30t35.5 -21.5t50.5 -8q27 0 48.5 5.5t37 13t26 15t16.5 12.5q1 -5 4 -13t8 -15.5t12 -13t16 -5.5q13 0 23 8t10 19q0 8 -7 29q-4 11 -6 19.5t-2 27.5v97zM257 559q0 -34 -5 -52.5t-20 -31.5
q-16 -14 -38.5 -20.5t-43.5 -6.5q-31 0 -44.5 15t-13.5 29q0 25 22 34t70 17q7 1 17 3t20.5 4t20 4.5t15.5 4.5z" />
    <glyph glyph-name="guillemotleft" unicode="&#xab;" 
d="M367 253l98 163q5 9 9.5 16.5t4.5 15.5q0 13 -9.5 22t-23.5 9q-5 0 -14 -4t-24 -27l-100 -158q-7 -11 -12.5 -20.5t-5.5 -17.5q0 -6 6 -16l12 -20l99 -156q15 -23 23.5 -28t17.5 -5q12 0 21.5 9t9.5 21q0 8 -4 16t-8 15zM153 253l98 163q5 9 9.5 16.5t4.5 15.5
q0 13 -9.5 22t-23.5 9q-5 0 -14 -4t-24 -27l-100 -158q-7 -11 -12.5 -20.5t-5.5 -17.5q0 -6 6 -16l12 -20l99 -156q15 -23 23.5 -28t17.5 -5q12 0 21.5 9t9.5 21q0 8 -4 16t-8 15z" />
    <glyph glyph-name="logicalnot" unicode="&#xac;" horiz-adv-x="583" 
d="M447 207h82v296h-474v-82h392v-214z" />
    <glyph glyph-name="registered" unicode="&#xae;" horiz-adv-x="740" 
d="M208 156h64v168h38q19 0 33 -4.5t27 -16.5t26.5 -32.5t31.5 -52.5l35 -62h78l-48 77q-18 30 -31.5 48t-24 28.5t-19 15.5t-17.5 8q31 2 52.5 13.5t35 28t19.5 35t6 35.5q0 24 -10.5 44.5t-27.5 34.5q-25 21 -60.5 24.5t-70.5 3.5h-137v-396zM272 498h73q15 0 32.5 -1
t32.5 -6.5t25.5 -17.5t10.5 -34q0 -23 -11 -35t-26 -17.5t-31.5 -6.5t-27.5 -1h-78v119zM370 728q-76 0 -143 -28.5t-117.5 -78.5t-79.5 -117t-29 -144t29 -144t79 -117t117 -79t144 -29q76 0 143.5 29t117.5 79.5t79 117.5t29 143t-29 143.5t-79.5 117t-117.5 78.5t-143 29
zM370 666q63 0 119 -24t97.5 -65t66 -97t24.5 -120t-24 -120t-65.5 -97.5t-97.5 -65.5t-120 -24t-120 24t-97.5 65.5t-65.5 97.5t-24 120t24.5 120t66 97t97.5 65t119 24z" />
    <glyph glyph-name="macron" unicode="&#xaf;" horiz-adv-x="333" 
d="M63 672q-24 0 -36.5 -5t-12.5 -34q0 -13 4 -20t10.5 -10t15.5 -3.5t19 -0.5h207q24 0 36.5 5t12.5 34q0 25 -14.5 29.5t-34.5 4.5h-207z" />
    <glyph glyph-name="macron" unicode="&#x2c9;" horiz-adv-x="333" 
d="M63 672q-24 0 -36.5 -5t-12.5 -34q0 -13 4 -20t10.5 -10t15.5 -3.5t19 -0.5h207q24 0 36.5 5t12.5 34q0 25 -14.5 29.5t-34.5 4.5h-207z" />
    <glyph glyph-name="degree" unicode="&#xb0;" horiz-adv-x="396" 
d="M63 593q0 -29 10.5 -53.5t29 -43t43 -29t52.5 -10.5t52.5 10.5t43 29t29 43t10.5 53.5q0 28 -10.5 52.5t-29 43t-43 29t-52.5 10.5t-52.5 -10.5t-43 -29t-29 -43t-10.5 -52.5zM116 593q0 34 23.5 58t58.5 24t58.5 -24t23.5 -58q0 -35 -24 -59t-58 -24t-58 24t-24 59z" />
    <glyph glyph-name="plusminus" unicode="&#xb1;" horiz-adv-x="583" 
d="M529 0v82h-474v-82h474zM251 127h82v196h196v82h-196v196h-82v-196h-196v-82h196v-196z" />
    <glyph glyph-name="twosuperior" unicode="&#xb2;" horiz-adv-x="333" 
d="M134 405h-12t-17 1q14 17 36.5 32.5t45.5 31.5q26 18 48.5 34t39 32.5t25.5 34.5t9 41q0 10 -4.5 27.5t-19 35t-42.5 30t-75 12.5q-36 0 -62.5 -10.5t-43.5 -26t-25 -33t-8 -31.5q0 -17 10.5 -21.5t17.5 -4.5q14 0 20 8t17 32q6 14 24.5 27t50.5 13q27 0 51.5 -15
t24.5 -44q0 -14 -5.5 -25t-19 -24t-36.5 -29.5t-59 -40.5q-13 -9 -30.5 -21.5t-33.5 -27.5t-27.5 -31t-11.5 -32q0 -11 5 -16.5t12 -8t14 -3t10 -0.5h216q4 0 10.5 0.5t12.5 3t10 7.5t4 15t-5.5 15.5t-13 8t-16 3t-14.5 0.5h-133z" />
    <glyph glyph-name="threesuperior" unicode="&#xb3;" horiz-adv-x="333" 
d="M245 550q6 3 14 8.5t15.5 14t13 20t5.5 28.5q0 19 -8.5 36.5t-24.5 30.5t-40.5 21t-55.5 8q-35 0 -60 -10t-40.5 -24.5t-22.5 -29.5t-7 -25q0 -5 5 -15t22 -10q5 0 12.5 2.5t12.5 11.5q5 10 10.5 19.5t14.5 17.5t21.5 13t31.5 5q32 0 48.5 -16.5t16.5 -34.5
q0 -2 -1.5 -10t-9 -17.5t-24.5 -17t-48 -7.5q-2 0 -7.5 -0.5t-11.5 -2.5t-11 -7.5t-5 -14.5q0 -12 9 -17.5t17 -5.5q5 0 19 1t19 1q35 0 53.5 -18.5t18.5 -42.5q0 -26 -22 -47.5t-61 -21.5q-36 0 -54.5 16.5t-26.5 37.5q-5 9 -10.5 16.5t-19.5 7.5q-11 0 -20 -6.5t-9 -17.5
q0 -1 2 -14t15 -31q7 -10 17 -20t25 -18t36 -13t51 -5q37 0 64 10.5t44.5 27t26 37.5t8.5 42q0 65 -68 87z" />
    <glyph glyph-name="acute" unicode="&#xb4;" horiz-adv-x="333" 
d="M121 623q-6 -11 -8 -16t-2 -10t5.5 -11.5t16.5 -6.5q9 0 18.5 5t22.5 17t30.5 30.5t43.5 45.5q17 18 20.5 23t3.5 10t-6.5 6.5t-23.5 1.5h-24q-17 0 -27 -0.5t-17 -5t-13 -14t-15 -26.5z" />
    <glyph glyph-name="mu" unicode="&#xb5;" horiz-adv-x="552" 
d="M150 60q8 -12 18 -25t24.5 -23.5t35 -17t49.5 -6.5q31 0 52 7.5t35.5 19t22.5 24t14 22.5q0 -12 0.5 -25t4.5 -23.5t12.5 -17.5t24.5 -7t24.5 6.5t12.5 16.5t4.5 22t0.5 24v402q0 23 -0.5 32.5t-6.5 19.5q-4 8 -14.5 13.5t-21.5 5.5q-18 0 -31 -13q-9 -8 -11 -22.5
t-2 -36.5v-160q0 -60 -2.5 -103t-18.5 -69q-22 -36 -52 -47t-52 -11q-27 0 -48 10t-35 26q-9 10 -16 22t-11.5 30t-7 44t-2.5 65v193q0 22 -1.5 36.5t-10.5 23.5q-14 12 -31 12q-14 0 -23.5 -6.5t-13.5 -12.5q-5 -10 -6 -21t-1 -32v-578q0 -33 1.5 -51t10.5 -27
q14 -12 30 -12q25 0 33.5 17t8.5 34v219z" />
    <glyph glyph-name="mu" unicode="&#x3bc;" horiz-adv-x="552" 
d="M150 60q8 -12 18 -25t24.5 -23.5t35 -17t49.5 -6.5q31 0 52 7.5t35.5 19t22.5 24t14 22.5q0 -12 0.5 -25t4.5 -23.5t12.5 -17.5t24.5 -7t24.5 6.5t12.5 16.5t4.5 22t0.5 24v402q0 23 -0.5 32.5t-6.5 19.5q-4 8 -14.5 13.5t-21.5 5.5q-18 0 -31 -13q-9 -8 -11 -22.5
t-2 -36.5v-160q0 -60 -2.5 -103t-18.5 -69q-22 -36 -52 -47t-52 -11q-27 0 -48 10t-35 26q-9 10 -16 22t-11.5 30t-7 44t-2.5 65v193q0 22 -1.5 36.5t-10.5 23.5q-14 12 -31 12q-14 0 -23.5 -6.5t-13.5 -12.5q-5 -10 -6 -21t-1 -32v-578q0 -33 1.5 -51t10.5 -27
q14 -12 30 -12q25 0 33.5 17t8.5 34v219z" />
    <glyph glyph-name="paragraph" unicode="&#xb6;" horiz-adv-x="542" 
d="M198 -199h84v831h105v-831h84v831h70v84h-309q-25 0 -54 -3t-69 -20q-28 -12 -48 -31.5t-33.5 -43.5t-20 -52t-6.5 -56q0 -38 12 -72.5t36 -61.5t61 -44.5t88 -20.5v-510z" />
    <glyph glyph-name="periodcentered" unicode="&#xb7;" horiz-adv-x="240" 
d="M175 352q0 23 -16 39t-39 16t-39 -16t-16 -39t16 -39t39 -16t39 16t16 39z" />
    <glyph glyph-name="periodcentered" unicode="&#x22c5;" horiz-adv-x="240" 
d="M175 352q0 23 -16 39t-39 16t-39 -16t-16 -39t16 -39t39 -16t39 16t16 39z" />
    <glyph glyph-name="cedilla" unicode="&#xb8;" horiz-adv-x="333" 
d="M96 -43q0 -17 9.5 -22.5t26.5 -5.5q14 0 29.5 -9t15.5 -26q0 -15 -10.5 -22.5t-25.5 -11.5t-32.5 -4.5t-31.5 -0.5q-23 0 -29 -8t-6 -13q0 -10 7.5 -15t18 -7.5t21 -3t15.5 -0.5q40 0 68 7t45 18.5t25 26.5t8 31q0 35 -23 49.5t-54 18.5q0 29 -3 42t-24 13
q-16 0 -25.5 -7t-15 -16.5t-7.5 -19t-2 -14.5z" />
    <glyph glyph-name="onesuperior" unicode="&#xb9;" horiz-adv-x="333" 
d="M227 677q0 4 -0.5 10.5t-3 13t-8.5 11t-17 4.5q-10 0 -15.5 -5t-11.5 -13q-12 -15 -26.5 -26.5t-28.5 -20t-25.5 -13.5t-16.5 -7q-16 -6 -22.5 -11.5t-6.5 -15.5q0 -12 8 -18t16 -6q4 0 11.5 1.5t18.5 6t27 13.5t37 24v-234q0 -7 0.5 -15t4 -14.5t10 -11t18.5 -4.5
t18 4.5t9 10.5t3.5 13t0.5 12v291z" />
    <glyph glyph-name="ordmasculine" unicode="&#xba;" horiz-adv-x="365" 
d="M344 561q0 44 -13 75.5t-35.5 52t-52 30t-61.5 9.5q-76 0 -119 -45.5t-43 -126.5q0 -33 10.5 -62.5t31 -51.5t50.5 -34.5t70 -12.5q33 0 62 9.5t51.5 29.5t35.5 51.5t13 75.5zM276 561q0 -51 -24 -81.5t-69 -30.5q-46 0 -70.5 30.5t-24.5 81.5t24.5 82t70.5 31
q45 0 69 -31t24 -82z" />
    <glyph glyph-name="guillemotright" unicode="&#xbb;" 
d="M196 253l-100 -165q-4 -7 -8 -15t-4 -16q0 -12 9.5 -21t21.5 -9q9 0 17.5 5t23.5 28l99 156l12 20t6 16q0 8 -5.5 17.5t-12.5 20.5l-100 158q-15 23 -24 27t-14 4q-14 0 -23.5 -9t-9.5 -22q0 -8 4.5 -15.5t9.5 -16.5zM410 253l-100 -165q-4 -7 -8 -15t-4 -16
q0 -12 9.5 -21t21.5 -9q9 0 17.5 5t23.5 28l99 156l12 20t6 16q0 8 -5.5 17.5t-12.5 20.5l-100 158q-15 23 -24 27t-14 4q-14 0 -23.5 -9t-9.5 -22q0 -8 4.5 -15.5t9.5 -16.5z" />
    <glyph glyph-name="onequarter" unicode="&#xbc;" horiz-adv-x="833" 
d="M700 83v-49q0 -6 0.5 -13t3.5 -13t9 -10t17 -4t17 4t9 10t3.5 13t0.5 13v49h25q4 0 10.5 0.5t13 2.5t11 7t4.5 14q0 10 -4.5 15t-11 7.5t-13.5 3t-12 0.5h-23v195q0 13 -4 27t-27 14q-8 0 -14.5 -3.5t-20.5 -18.5l-177 -203q-11 -12 -14.5 -17t-3.5 -13q0 -12 5 -18
t13 -9t17.5 -3.5t18.5 -0.5h147zM572 133l128 147v-147h-128zM227 677q0 4 -0.5 10.5t-3 13t-8.5 11t-17 4.5q-10 0 -15.5 -5t-11.5 -13q-12 -15 -26.5 -26.5t-28.5 -20t-25.5 -13.5t-16.5 -7q-16 -6 -22.5 -11.5t-6.5 -15.5q0 -12 8 -18t16 -6q4 0 11.5 1.5t18.5 6t27 13.5
t37 24v-234q0 -7 0.5 -15t4 -14.5t10 -11t18.5 -4.5t18 4.5t9 10.5t3.5 13t0.5 12v291zM164 23q-11 -14 -11 -26q0 -6 7.5 -14.5t19.5 -8.5q5 0 12 2.5t18 19.5l452 668q6 8 12.5 19t6.5 18q0 9 -7.5 17.5t-18.5 8.5t-18 -8t-19 -25z" />
    <glyph glyph-name="onehalf" unicode="&#xbd;" horiz-adv-x="833" 
d="M634 53h-12t-17 1q14 17 36.5 32.5t45.5 31.5q26 18 48.5 34t39 32.5t25.5 34.5t9 41q0 10 -4.5 27.5t-19 35t-42.5 30t-75 12.5q-36 0 -62.5 -10.5t-43.5 -26t-25 -33t-8 -31.5q0 -17 10.5 -21.5t17.5 -4.5q14 0 20 8t17 32q6 14 24.5 27t50.5 13q27 0 51.5 -15
t24.5 -44q0 -14 -5.5 -25t-19 -24t-36.5 -29.5t-59 -40.5q-13 -9 -30.5 -21.5t-33.5 -27.5t-27.5 -31t-11.5 -32q0 -11 5 -16.5t12 -8t14 -3t10 -0.5h216q4 0 10.5 0.5t12.5 3t10 7.5t4 15t-5.5 15.5t-13 8t-16 3t-14.5 0.5h-133zM227 677q0 4 -0.5 10.5t-3 13t-8.5 11
t-17 4.5q-10 0 -15.5 -5t-11.5 -13q-12 -15 -26.5 -26.5t-28.5 -20t-25.5 -13.5t-16.5 -7q-16 -6 -22.5 -11.5t-6.5 -15.5q0 -12 8 -18t16 -6q4 0 11.5 1.5t18.5 6t27 13.5t37 24v-234q0 -7 0.5 -15t4 -14.5t10 -11t18.5 -4.5t18 4.5t9 10.5t3.5 13t0.5 12v291zM164 23
q-11 -14 -11 -26q0 -6 7.5 -14.5t19.5 -8.5q5 0 12 2.5t18 19.5l452 668q6 8 12.5 19t6.5 18q0 9 -7.5 17.5t-18.5 8.5t-18 -8t-19 -25z" />
    <glyph glyph-name="threequarters" unicode="&#xbe;" horiz-adv-x="833" 
d="M700 83v-49q0 -6 0.5 -13t3.5 -13t9 -10t17 -4t17 4t9 10t3.5 13t0.5 13v49h25q4 0 10.5 0.5t13 2.5t11 7t4.5 14q0 10 -4.5 15t-11 7.5t-13.5 3t-12 0.5h-23v195q0 13 -4 27t-27 14q-8 0 -14.5 -3.5t-20.5 -18.5l-177 -203q-11 -12 -14.5 -17t-3.5 -13q0 -12 5 -18
t13 -9t17.5 -3.5t18.5 -0.5h147zM572 133l128 147v-147h-128zM245 550q6 3 14 8.5t15.5 14t13 20t5.5 28.5q0 19 -8.5 36.5t-24.5 30.5t-40.5 21t-55.5 8q-35 0 -60 -10t-40.5 -24.5t-22.5 -29.5t-7 -25q0 -5 5 -15t22 -10q5 0 12.5 2.5t12.5 11.5q5 10 10.5 19.5t14.5 17.5
t21.5 13t31.5 5q32 0 48.5 -16.5t16.5 -34.5q0 -2 -1.5 -10t-9 -17.5t-24.5 -17t-48 -7.5q-2 0 -7.5 -0.5t-11.5 -2.5t-11 -7.5t-5 -14.5q0 -12 9 -17.5t17 -5.5q5 0 19 1t19 1q35 0 53.5 -18.5t18.5 -42.5q0 -26 -22 -47.5t-61 -21.5q-36 0 -54.5 16.5t-26.5 37.5
q-5 9 -10.5 16.5t-19.5 7.5q-11 0 -20 -6.5t-9 -17.5q0 -1 2 -14t15 -31q7 -10 17 -20t25 -18t36 -13t51 -5q37 0 64 10.5t44.5 27t26 37.5t8.5 42q0 65 -68 87zM175 23q-5 -7 -8 -13t-3 -13q0 -6 7.5 -14.5t20.5 -8.5q5 0 11.5 2.5t17.5 19.5l453 668q6 8 12.5 19t6.5 18
q0 9 -7.5 17.5t-18.5 8.5t-18.5 -8t-18.5 -25z" />
    <glyph glyph-name="questiondown" unicode="&#xbf;" horiz-adv-x="531" 
d="M483 -25q0 23 -15 34.5t-30 11.5q-24 0 -32.5 -15t-13.5 -28q-3 -12 -10.5 -31.5t-22.5 -37.5t-38.5 -31.5t-59.5 -13.5q-29 0 -52 9.5t-40 26t-26 38t-9 44.5q0 20 5.5 36t16.5 31t27.5 30.5t37.5 35.5q24 21 41.5 40.5t29.5 40.5t18 45t6 55q0 4 -0.5 12.5t-4.5 17.5
t-12.5 15.5t-24.5 6.5q-14 0 -21.5 -5t-12 -11.5t-6 -13.5t-1.5 -10q-3 -25 -6 -40.5t-12 -30.5t-26 -33t-47 -47q-50 -48 -74.5 -87t-24.5 -89q0 -34 12.5 -68t39 -61.5t66.5 -44.5t94 -17q66 0 109.5 23.5t70 55t37.5 62t11 44.5zM265 420q23 0 39 16t16 39t-16 39t-39 16
t-39 -16t-16 -39t16 -39t39 -16z" />
    <glyph glyph-name="Agrave" unicode="&#xc0;" horiz-adv-x="688" 
d="M501 207l64 -158q12 -30 21.5 -45.5t34.5 -15.5q22 0 35 15t13 29q0 11 -3.5 22t-11.5 30l-235 560q-7 17 -15.5 36.5t-16.5 27.5q-8 9 -21 14.5t-27 5.5q-17 0 -28.5 -5.5t-20 -16t-15.5 -26.5t-15 -37l-227 -563q-7 -17 -10.5 -28t-3.5 -22q0 -15 13 -28.5t33 -13.5
q25 0 34.5 15t20.5 44l62 160h319zM209 284l129 335l134 -335h-263zM407 810l-25 49q-9 17 -15 26.5t-13 14t-17 5t-27 0.5h-24q-17 0 -23.5 -1.5t-6.5 -6.5t3.5 -10t20.5 -23q25 -27 43 -46t31 -30.5t22.5 -16.5t18.5 -5q11 0 16.5 6.5t5.5 11.5t-2 10t-8 16z" />
    <glyph glyph-name="Aacute" unicode="&#xc1;" horiz-adv-x="688" 
d="M501 207l64 -158q12 -30 21.5 -45.5t34.5 -15.5q22 0 35 15t13 29q0 11 -3.5 22t-11.5 30l-235 560q-7 17 -15.5 36.5t-16.5 27.5q-8 9 -21 14.5t-27 5.5q-17 0 -28.5 -5.5t-20 -16t-15.5 -26.5t-15 -37l-227 -563q-7 -17 -10.5 -28t-3.5 -22q0 -15 13 -28.5t33 -13.5
q25 0 34.5 15t20.5 44l62 160h319zM209 284l129 335l134 -335h-263zM299 810q-6 -11 -8 -16t-2 -10t5.5 -11.5t16.5 -6.5q9 0 18.5 5t22.5 17t30.5 30.5t43.5 45.5q17 18 20.5 23t3.5 10t-6.5 6.5t-23.5 1.5h-24q-17 0 -27 -0.5t-17 -5t-13 -14t-15 -26.5z" />
    <glyph glyph-name="Acircumflex" unicode="&#xc2;" horiz-adv-x="688" 
d="M501 207l64 -158q12 -30 21.5 -45.5t34.5 -15.5q22 0 35 15t13 29q0 11 -3.5 22t-11.5 30l-235 560q-7 17 -15.5 36.5t-16.5 27.5q-8 9 -21 14.5t-27 5.5q-17 0 -28.5 -5.5t-20 -16t-15.5 -26.5t-15 -37l-227 -563q-7 -17 -10.5 -28t-3.5 -22q0 -15 13 -28.5t33 -13.5
q25 0 34.5 15t20.5 44l62 160h319zM209 284l129 335l134 -335h-263zM345 864l46 -58q17 -20 22 -25t13 -6q5 -2 17 -2h26q4 0 10 1.5t6 6.5q0 3 -2 7t-13 17l-42 53q-14 17 -23 28t-17 17t-17.5 8t-23.5 2q-16 0 -26.5 -2t-19 -7.5t-17.5 -16.5t-23 -29l-40 -51
q-4 -5 -10.5 -13.5t-6.5 -12.5t4 -6q3 -2 9 -2h33q9 0 15 1t11 4.5t10.5 10t13.5 17.5z" />
    <glyph glyph-name="Atilde" unicode="&#xc3;" horiz-adv-x="688" 
d="M501 207l64 -158q12 -30 21.5 -45.5t34.5 -15.5q22 0 35 15t13 29q0 11 -3.5 22t-11.5 30l-235 560q-7 17 -15.5 36.5t-16.5 27.5q-8 9 -21 14.5t-27 5.5q-17 0 -28.5 -5.5t-20 -16t-15.5 -26.5t-15 -37l-227 -563q-7 -17 -10.5 -28t-3.5 -22q0 -15 13 -28.5t33 -13.5
q25 0 34.5 15t20.5 44l62 160h319zM209 284l129 335l134 -335h-263zM223 782q8 0 11.5 6.5t5.5 9.5q5 13 10.5 21.5t19.5 8.5q7 0 17.5 -2.5t21.5 -6t20 -7t14 -5.5q22 -8 35 -12t21 -6t12.5 -2.5t9.5 -0.5q21 0 35 8t22 19.5t11.5 24t3.5 20.5q0 15 -8.5 23.5t-16.5 8.5
q-10 0 -14.5 -7.5t-7.5 -15.5q-5 -11 -11 -16.5t-19 -5.5q-4 0 -8 0.5t-11.5 2.5t-20 6.5t-33.5 12.5q-10 5 -33.5 12.5t-45.5 7.5q-16 0 -28.5 -6.5t-21.5 -17t-13.5 -23.5t-4.5 -25q0 -18 9.5 -25.5t17.5 -7.5z" />
    <glyph glyph-name="Adieresis" unicode="&#xc4;" horiz-adv-x="688" 
d="M501 207l64 -158q12 -30 21.5 -45.5t34.5 -15.5q22 0 35 15t13 29q0 11 -3.5 22t-11.5 30l-235 560q-7 17 -15.5 36.5t-16.5 27.5q-8 9 -21 14.5t-27 5.5q-17 0 -28.5 -5.5t-20 -16t-15.5 -26.5t-15 -37l-227 -563q-7 -17 -10.5 -28t-3.5 -22q0 -15 13 -28.5t33 -13.5
q25 0 34.5 15t20.5 44l62 160h319zM209 284l129 335l134 -335h-263zM309 827q0 20 -13.5 33.5t-33.5 13.5t-33.5 -13.5t-13.5 -33.5t13.5 -33.5t33.5 -13.5t33.5 13.5t13.5 33.5zM474 827q0 20 -13.5 33.5t-33.5 13.5t-33.5 -13.5t-13.5 -33.5t13.5 -33.5t33.5 -13.5
t33.5 13.5t13.5 33.5z" />
    <glyph glyph-name="Aring" unicode="&#xc5;" horiz-adv-x="688" 
d="M501 207l64 -158q12 -30 21.5 -45.5t34.5 -15.5q22 0 35 15t13 29q0 11 -3.5 22t-11.5 30l-235 560q-7 17 -15.5 36.5t-16.5 27.5q-8 9 -21 14.5t-27 5.5q-17 0 -28.5 -5.5t-20 -16t-15.5 -26.5t-15 -37l-227 -563q-7 -17 -10.5 -28t-3.5 -22q0 -15 13 -28.5t33 -13.5
q25 0 34.5 15t20.5 44l62 160h319zM209 284l129 335l134 -335h-263zM437 843q0 19 -7.5 36t-20 29.5t-29 20t-35.5 7.5t-36 -7t-29.5 -20t-20 -30t-7.5 -36t7 -35.5t19.5 -29t29.5 -20t36 -7.5t36 7.5t30 20t20 29t7 35.5zM397 843q0 -22 -15.5 -37t-37.5 -15
q-21 0 -36.5 15t-15.5 37t15 37.5t37 15.5q23 0 38 -15.5t15 -37.5z" />
    <glyph glyph-name="AE" unicode="&#xc6;" horiz-adv-x="1000" 
d="M188 202h290v-122q0 -28 3 -44t11.5 -24t24.5 -10t42 -2h330q12 0 23.5 0.5t21 4.5t15.5 11.5t6 22.5t-6 22.5t-15.5 11t-21.5 4t-23 0.5h-315v255h279q11 0 22.5 0.5t21 4t15.5 11t6 22.5t-6 22.5t-15.5 11.5t-21 4.5t-22.5 0.5h-279v230h304q11 0 22.5 0.5t21 4
t15.5 11t6 22.5t-6 22.5t-15.5 11.5t-21 4.5t-22.5 0.5h-485q-24 0 -37 -1t-21 -6t-14.5 -17t-16.5 -33l-274 -579q-9 -20 -13 -29.5t-4 -20.5q0 -3 2 -10t7 -14t14 -12.5t23 -5.5q11 0 18.5 2.5t13.5 9.5t12.5 19.5t15.5 32.5zM223 279l166 362h89v-362h-255z" />
    <glyph glyph-name="Ccedilla" unicode="&#xc7;" horiz-adv-x="729" 
d="M394 -12q52 0 93 13t72.5 34.5t53.5 47.5t36.5 52.5t21 50t6.5 38.5q0 17 -12.5 28t-28.5 11q-21 0 -29.5 -13.5t-13.5 -27.5q-26 -75 -78 -116t-130 -41q-35 0 -76 12t-75.5 44.5t-57.5 88.5t-23 144t23.5 145.5t59 91t77.5 47t80 13.5q37 0 61.5 -9t40.5 -19
q23 -14 43 -35.5t34 -47.5q5 -10 11 -20.5t13.5 -19t16 -14t19.5 -5.5q20 0 29.5 14t9.5 28q0 9 -6.5 27.5t-20 41t-35.5 47t-53.5 44t-73 32.5t-93.5 13q-73 0 -134.5 -26.5t-105.5 -75t-69 -116.5t-25 -152q0 -81 26 -157t76 -127q36 -38 81.5 -57t111.5 -27
q-20 -14 -27.5 -21t-7.5 -16q0 -13 10 -21.5t18 -8.5q2 0 8.5 1.5t8.5 1.5q12 0 27 -11t15 -28q0 -14 -11 -25t-28.5 -13t-50.5 -3q-29 -2 -43.5 -6t-14.5 -18q0 -10 8 -15.5t18.5 -8t20.5 -3t14 -0.5q8 0 34 1.5t54 10t50 27t22 52.5q0 22 -10 36t-24 22.5t-29 12.5t-25 6z
" />
    <glyph glyph-name="Egrave" unicode="&#xc8;" horiz-adv-x="635" 
d="M183 639h333q11 0 23 0.5t21.5 4t15.5 11.5t6 23t-6 22.5t-16 11t-21.5 4t-22.5 0.5h-349q-32 0 -44.5 -2t-22.5 -13q-11 -11 -12 -25t-1 -40v-556q0 -30 1.5 -43t12.5 -23q6 -5 11 -8t11.5 -4.5t16.5 -1.5h27h363q11 0 23 0.5t21.5 4t15.5 11.5t6 23t-6 22.5t-16 11
t-21.5 4t-22.5 0.5h-347v255h306q11 0 22.5 0.5t20.5 4.5t15 11.5t6 22.5q0 14 -6 22t-15 11.5t-20.5 4t-22.5 0.5h-306v230zM365 810l-25 49q-9 17 -15 26.5t-13 14t-17 5t-27 0.5h-24q-17 0 -23.5 -1.5t-6.5 -6.5t3.5 -10t20.5 -23q25 -27 43 -46t31 -30.5t22.5 -16.5
t18.5 -5q11 0 16.5 6.5t5.5 11.5t-2 10t-8 16z" />
    <glyph glyph-name="Eacute" unicode="&#xc9;" horiz-adv-x="635" 
d="M183 639h333q11 0 23 0.5t21.5 4t15.5 11.5t6 23t-6 22.5t-16 11t-21.5 4t-22.5 0.5h-349q-32 0 -44.5 -2t-22.5 -13q-11 -11 -12 -25t-1 -40v-556q0 -30 1.5 -43t12.5 -23q6 -5 11 -8t11.5 -4.5t16.5 -1.5h27h363q11 0 23 0.5t21.5 4t15.5 11.5t6 23t-6 22.5t-16 11
t-21.5 4t-22.5 0.5h-347v255h306q11 0 22.5 0.5t20.5 4.5t15 11.5t6 22.5q0 14 -6 22t-15 11.5t-20.5 4t-22.5 0.5h-306v230zM272 810q-6 -11 -8 -16t-2 -10t5.5 -11.5t16.5 -6.5q9 0 18.5 5t22.5 17t30.5 30.5t43.5 45.5q17 18 20.5 23t3.5 10t-6.5 6.5t-23.5 1.5h-24
q-17 0 -27 -0.5t-17 -5t-13 -14t-15 -26.5z" />
    <glyph glyph-name="Ecircumflex" unicode="&#xca;" horiz-adv-x="635" 
d="M183 639h333q11 0 23 0.5t21.5 4t15.5 11.5t6 23t-6 22.5t-16 11t-21.5 4t-22.5 0.5h-349q-32 0 -44.5 -2t-22.5 -13q-11 -11 -12 -25t-1 -40v-556q0 -30 1.5 -43t12.5 -23q6 -5 11 -8t11.5 -4.5t16.5 -1.5h27h363q11 0 23 0.5t21.5 4t15.5 11.5t6 23t-6 22.5t-16 11
t-21.5 4t-22.5 0.5h-347v255h306q11 0 22.5 0.5t20.5 4.5t15 11.5t6 22.5q0 14 -6 22t-15 11.5t-20.5 4t-22.5 0.5h-306v230zM318 864l46 -58q17 -20 22 -25t13 -6q5 -2 17 -2h26q4 0 10 1.5t6 6.5q0 3 -2 7t-13 17l-42 53q-14 17 -23 28t-17 17t-17.5 8t-23.5 2
q-16 0 -26.5 -2t-19 -7.5t-17.5 -16.5t-23 -29l-40 -51q-4 -5 -10.5 -13.5t-6.5 -12.5t4 -6q3 -2 9 -2h33q9 0 15 1t11 4.5t10.5 10t13.5 17.5z" />
    <glyph glyph-name="Edieresis" unicode="&#xcb;" horiz-adv-x="635" 
d="M183 639h333q11 0 23 0.5t21.5 4t15.5 11.5t6 23t-6 22.5t-16 11t-21.5 4t-22.5 0.5h-349q-32 0 -44.5 -2t-22.5 -13q-11 -11 -12 -25t-1 -40v-556q0 -30 1.5 -43t12.5 -23q6 -5 11 -8t11.5 -4.5t16.5 -1.5h27h363q11 0 23 0.5t21.5 4t15.5 11.5t6 23t-6 22.5t-16 11
t-21.5 4t-22.5 0.5h-347v255h306q11 0 22.5 0.5t20.5 4.5t15 11.5t6 22.5q0 14 -6 22t-15 11.5t-20.5 4t-22.5 0.5h-306v230zM282 827q0 20 -13.5 33.5t-33.5 13.5t-33.5 -13.5t-13.5 -33.5t13.5 -33.5t33.5 -13.5t33.5 13.5t13.5 33.5zM447 827q0 20 -13.5 33.5t-33.5 13.5
t-33.5 -13.5t-13.5 -33.5t13.5 -33.5t33.5 -13.5t33.5 13.5t13.5 33.5z" />
    <glyph glyph-name="Igrave" unicode="&#xcc;" horiz-adv-x="292" 
d="M194 649q0 25 -1.5 40t-11.5 24q-7 8 -16.5 11.5t-18.5 3.5q-13 0 -21.5 -5t-13.5 -10q-10 -9 -11.5 -23.5t-1.5 -40.5v-582q0 -26 1.5 -40.5t11.5 -24.5q7 -7 16.5 -10.5t18.5 -3.5q12 0 21 5t14 10q10 9 11.5 23.5t1.5 40.5v582zM210 810l-25 49q-9 17 -15 26.5t-13 14
t-17 5t-27 0.5h-24q-17 0 -23.5 -1.5t-6.5 -6.5t3.5 -10t20.5 -23q25 -27 43 -46t31 -30.5t22.5 -16.5t18.5 -5q11 0 16.5 6.5t5.5 11.5t-2 10t-8 16z" />
    <glyph glyph-name="Iacute" unicode="&#xcd;" horiz-adv-x="292" 
d="M194 649q0 25 -1.5 40t-11.5 24q-7 8 -16.5 11.5t-18.5 3.5q-13 0 -21.5 -5t-13.5 -10q-10 -9 -11.5 -23.5t-1.5 -40.5v-582q0 -26 1.5 -40.5t11.5 -24.5q7 -7 16.5 -10.5t18.5 -3.5q12 0 21 5t14 10q10 9 11.5 23.5t1.5 40.5v582zM102 810q-6 -11 -8 -16t-2 -10
t5.5 -11.5t16.5 -6.5q9 0 18.5 5t22.5 17t30.5 30.5t43.5 45.5q17 18 20.5 23t3.5 10t-6.5 6.5t-23.5 1.5h-24q-17 0 -27 -0.5t-17 -5t-13 -14t-15 -26.5z" />
    <glyph glyph-name="Icircumflex" unicode="&#xce;" horiz-adv-x="292" 
d="M194 649q0 25 -1.5 40t-11.5 24q-7 8 -16.5 11.5t-18.5 3.5q-13 0 -21.5 -5t-13.5 -10q-10 -9 -11.5 -23.5t-1.5 -40.5v-582q0 -26 1.5 -40.5t11.5 -24.5q7 -7 16.5 -10.5t18.5 -3.5q12 0 21 5t14 10q10 9 11.5 23.5t1.5 40.5v582zM148 864l46 -58q17 -20 22 -25t13 -6
q5 -2 17 -2h26q4 0 10 1.5t6 6.5q0 3 -2 7t-13 17l-42 53q-14 17 -23 28t-17 17t-17.5 8t-23.5 2q-16 0 -26.5 -2t-19 -7.5t-17.5 -16.5t-23 -29l-40 -51q-4 -5 -10.5 -13.5t-6.5 -12.5t4 -6q3 -2 9 -2h33q9 0 15 1t11 4.5t10.5 10t13.5 17.5z" />
    <glyph glyph-name="Idieresis" unicode="&#xcf;" horiz-adv-x="292" 
d="M194 649q0 25 -1.5 40t-11.5 24q-7 8 -16.5 11.5t-18.5 3.5q-13 0 -21.5 -5t-13.5 -10q-10 -9 -11.5 -23.5t-1.5 -40.5v-582q0 -26 1.5 -40.5t11.5 -24.5q7 -7 16.5 -10.5t18.5 -3.5q12 0 21 5t14 10q10 9 11.5 23.5t1.5 40.5v582zM112 827q0 20 -13.5 33.5t-33.5 13.5
t-33.5 -13.5t-13.5 -33.5t13.5 -33.5t33.5 -13.5t33.5 13.5t13.5 33.5zM277 827q0 20 -13.5 33.5t-33.5 13.5t-33.5 -13.5t-13.5 -33.5t13.5 -33.5t33.5 -13.5t33.5 13.5t13.5 33.5z" />
    <glyph glyph-name="Eth" unicode="&#xd0;" horiz-adv-x="729" 
d="M85 326v-234q0 -26 1 -44t7.5 -28.5t20.5 -15t40 -4.5h113t79 0.5t52.5 2t35 3.5t26 5t25.5 8q63 22 101 65t57.5 92.5t25.5 98.5t6 84q0 71 -17 139t-62 122q-29 35 -62 54.5t-66.5 28.5t-66 11t-61.5 2h-174q-27 0 -43 -2.5t-24.5 -10.5t-11 -24t-2.5 -43v-246h-31
q-19 0 -34 -4t-15 -28t15 -28t34 -4h31zM330 326q19 0 34 4t15 28t-15 28t-34 4h-149v249h142q40 0 69.5 -3.5t52.5 -12t40.5 -22.5t33.5 -35q23 -30 40.5 -85t17.5 -127q0 -7 -1 -30.5t-6.5 -54t-17 -63t-33.5 -58.5q-18 -22 -37.5 -35.5t-42 -21.5t-49.5 -11t-61 -3h-148
v249h149z" />
    <glyph glyph-name="Ntilde" unicode="&#xd1;" horiz-adv-x="729" 
d="M559 142l-355 530q-20 31 -32 43.5t-34 12.5q-17 0 -26 -5.5t-12 -8.5q-7 -6 -11 -12.5t-5.5 -15t-2 -21t-0.5 -30.5v-570q0 -25 1.5 -39.5t11.5 -23.5q14 -14 34 -14q14 0 25 7.5t15 15.5q5 10 5.5 20t0.5 34l-4 502l349 -521q11 -16 19 -27t15.5 -18t15.5 -10t20 -3
q22 0 39 14q15 13 17.5 29.5t2.5 53.5v566q0 25 -1.5 39.5t-11.5 23.5q-14 14 -34 14q-14 0 -24.5 -7.5t-14.5 -15.5q-5 -10 -6 -20.5t0 -33.5zM243 782q8 0 11.5 6.5t5.5 9.5q5 13 10.5 21.5t19.5 8.5q7 0 17.5 -2.5t21.5 -6t20 -7t14 -5.5q22 -8 35 -12t21 -6t12.5 -2.5
t9.5 -0.5q21 0 35 8t22 19.5t11.5 24t3.5 20.5q0 15 -8.5 23.5t-16.5 8.5q-10 0 -14.5 -7.5t-7.5 -15.5q-5 -11 -11 -16.5t-19 -5.5q-4 0 -8 0.5t-11.5 2.5t-20 6.5t-33.5 12.5q-10 5 -33.5 12.5t-45.5 7.5q-16 0 -28.5 -6.5t-21.5 -17t-13.5 -23.5t-4.5 -25
q0 -18 9.5 -25.5t17.5 -7.5z" />
    <glyph glyph-name="Ograve" unicode="&#xd2;" horiz-adv-x="781" 
d="M730 358q0 62 -17 127.5t-56 119.5t-104 88.5t-161 34.5q-101 0 -166.5 -36t-104.5 -91t-54.5 -120t-15.5 -123q0 -36 6 -77.5t21 -82.5t40 -79t63 -67t90.5 -46.5t122.5 -17.5q91 0 155 32.5t104.5 85t58.5 119t18 133.5zM632 358q0 -60 -12 -105t-32 -77.5t-45.5 -54
t-52.5 -34t-53 -17.5t-47 -5q-49 0 -93 19.5t-77 55.5t-52 88t-19 118q0 25 3 56.5t11.5 63.5t22.5 61.5t37 51.5q31 31 73 51.5t94 20.5q21 0 47 -5t53 -17.5t52.5 -34t45.5 -54t32 -77.5t12 -105zM438 810l-25 49q-9 17 -15 26.5t-13 14t-17 5t-27 0.5h-24
q-17 0 -23.5 -1.5t-6.5 -6.5t3.5 -10t20.5 -23q25 -27 43 -46t31 -30.5t22.5 -16.5t18.5 -5q11 0 16.5 6.5t5.5 11.5t-2 10t-8 16z" />
    <glyph glyph-name="Oacute" unicode="&#xd3;" horiz-adv-x="781" 
d="M730 358q0 62 -17 127.5t-56 119.5t-104 88.5t-161 34.5q-101 0 -166.5 -36t-104.5 -91t-54.5 -120t-15.5 -123q0 -36 6 -77.5t21 -82.5t40 -79t63 -67t90.5 -46.5t122.5 -17.5q91 0 155 32.5t104.5 85t58.5 119t18 133.5zM632 358q0 -60 -12 -105t-32 -77.5t-45.5 -54
t-52.5 -34t-53 -17.5t-47 -5q-49 0 -93 19.5t-77 55.5t-52 88t-19 118q0 25 3 56.5t11.5 63.5t22.5 61.5t37 51.5q31 31 73 51.5t94 20.5q21 0 47 -5t53 -17.5t52.5 -34t45.5 -54t32 -77.5t12 -105zM345 810q-6 -11 -8 -16t-2 -10t5.5 -11.5t16.5 -6.5q9 0 18.5 5t22.5 17
t30.5 30.5t43.5 45.5q17 18 20.5 23t3.5 10t-6.5 6.5t-23.5 1.5h-24q-17 0 -27 -0.5t-17 -5t-13 -14t-15 -26.5z" />
    <glyph glyph-name="Ocircumflex" unicode="&#xd4;" horiz-adv-x="781" 
d="M730 358q0 62 -17 127.5t-56 119.5t-104 88.5t-161 34.5q-101 0 -166.5 -36t-104.5 -91t-54.5 -120t-15.5 -123q0 -36 6 -77.5t21 -82.5t40 -79t63 -67t90.5 -46.5t122.5 -17.5q91 0 155 32.5t104.5 85t58.5 119t18 133.5zM632 358q0 -60 -12 -105t-32 -77.5t-45.5 -54
t-52.5 -34t-53 -17.5t-47 -5q-49 0 -93 19.5t-77 55.5t-52 88t-19 118q0 25 3 56.5t11.5 63.5t22.5 61.5t37 51.5q31 31 73 51.5t94 20.5q21 0 47 -5t53 -17.5t52.5 -34t45.5 -54t32 -77.5t12 -105zM391 864l46 -58q17 -20 22 -25t13 -6q5 -2 17 -2h26q4 0 10 1.5t6 6.5
q0 3 -2 7t-13 17l-42 53q-14 17 -23 28t-17 17t-17.5 8t-23.5 2q-16 0 -26.5 -2t-19 -7.5t-17.5 -16.5t-23 -29l-40 -51q-4 -5 -10.5 -13.5t-6.5 -12.5t4 -6q3 -2 9 -2h33q9 0 15 1t11 4.5t10.5 10t13.5 17.5z" />
    <glyph glyph-name="Otilde" unicode="&#xd5;" horiz-adv-x="781" 
d="M730 358q0 62 -17 127.5t-56 119.5t-104 88.5t-161 34.5q-101 0 -166.5 -36t-104.5 -91t-54.5 -120t-15.5 -123q0 -36 6 -77.5t21 -82.5t40 -79t63 -67t90.5 -46.5t122.5 -17.5q91 0 155 32.5t104.5 85t58.5 119t18 133.5zM632 358q0 -60 -12 -105t-32 -77.5t-45.5 -54
t-52.5 -34t-53 -17.5t-47 -5q-49 0 -93 19.5t-77 55.5t-52 88t-19 118q0 25 3 56.5t11.5 63.5t22.5 61.5t37 51.5q31 31 73 51.5t94 20.5q21 0 47 -5t53 -17.5t52.5 -34t45.5 -54t32 -77.5t12 -105zM269 782q8 0 11.5 6.5t5.5 9.5q5 13 10.5 21.5t19.5 8.5q7 0 17.5 -2.5
t21.5 -6t20 -7t14 -5.5q22 -8 35 -12t21 -6t12.5 -2.5t9.5 -0.5q21 0 35 8t22 19.5t11.5 24t3.5 20.5q0 15 -8.5 23.5t-16.5 8.5q-10 0 -14.5 -7.5t-7.5 -15.5q-5 -11 -11 -16.5t-19 -5.5q-4 0 -8 0.5t-11.5 2.5t-20 6.5t-33.5 12.5q-10 5 -33.5 12.5t-45.5 7.5
q-16 0 -28.5 -6.5t-21.5 -17t-13.5 -23.5t-4.5 -25q0 -18 9.5 -25.5t17.5 -7.5z" />
    <glyph glyph-name="Odieresis" unicode="&#xd6;" horiz-adv-x="781" 
d="M730 358q0 62 -17 127.5t-56 119.5t-104 88.5t-161 34.5q-101 0 -166.5 -36t-104.5 -91t-54.5 -120t-15.5 -123q0 -36 6 -77.5t21 -82.5t40 -79t63 -67t90.5 -46.5t122.5 -17.5q91 0 155 32.5t104.5 85t58.5 119t18 133.5zM632 358q0 -60 -12 -105t-32 -77.5t-45.5 -54
t-52.5 -34t-53 -17.5t-47 -5q-49 0 -93 19.5t-77 55.5t-52 88t-19 118q0 25 3 56.5t11.5 63.5t22.5 61.5t37 51.5q31 31 73 51.5t94 20.5q21 0 47 -5t53 -17.5t52.5 -34t45.5 -54t32 -77.5t12 -105zM355 827q0 20 -13.5 33.5t-33.5 13.5t-33.5 -13.5t-13.5 -33.5t13.5 -33.5
t33.5 -13.5t33.5 13.5t13.5 33.5zM520 827q0 20 -13.5 33.5t-33.5 13.5t-33.5 -13.5t-13.5 -33.5t13.5 -33.5t33.5 -13.5t33.5 13.5t13.5 33.5z" />
    <glyph glyph-name="multiply" unicode="&#xd7;" horiz-adv-x="583" 
d="M79 200l58 -59l154 154l154 -154l59 60l-153 153l153 153l-59 59l-153 -153l-153 154l-60 -60l154 -154z" />
    <glyph glyph-name="Oslash" unicode="&#xd8;" horiz-adv-x="781" 
d="M164 65q31 -29 67 -44.5t69 -22.5t58.5 -8.5t34.5 -1.5q65 0 115.5 16.5t88 44.5t63 65.5t41 79t22.5 84.5t7 82q0 41 -7 78.5t-17.5 69t-23.5 56t-25 41.5l59 64q2 3 8 11t6 22q0 9 -8.5 17.5t-19.5 8.5t-18.5 -6t-20.5 -20l-47 -52q-25 23 -52.5 38t-56.5 24t-58 12.5
t-57 3.5q-67 0 -118.5 -16.5t-89 -44.5t-63.5 -65.5t-41.5 -78.5t-22 -83.5t-6.5 -81.5q0 -54 9 -95.5t21 -72t24 -50t19 -29.5l-59 -65q-5 -5 -9.5 -12.5t-4.5 -18.5q0 -5 5.5 -16t22.5 -11q11 0 17.5 5t20.5 20zM592 533q13 -24 21 -49.5t12.5 -49.5t5.5 -44t1 -32
q0 -90 -26.5 -147.5t-64 -89.5t-79.5 -44t-72 -12q-40 0 -83 15.5t-81 52.5zM189 182q-11 20 -25.5 64.5t-14.5 107.5q0 90 25.5 148t62.5 91t78.5 45.5t73.5 12.5q35 0 79.5 -14t85.5 -55z" />
    <glyph glyph-name="Ugrave" unicode="&#xd9;" horiz-adv-x="729" 
d="M177 648q0 26 -1.5 40.5t-11.5 24.5q-14 15 -35 15q-12 0 -21 -5t-14 -10q-10 -10 -11.5 -24.5t-1.5 -40.5v-373q0 -79 19 -134t55.5 -89t91 -49t126.5 -15q83 0 136.5 24.5t84 65t42.5 92t12 106.5v372q0 26 -1.5 40.5t-11.5 24.5q-14 15 -35 15q-12 0 -21 -5t-14 -10
q-10 -10 -11.5 -24.5t-1.5 -40.5v-381q0 -30 -5.5 -65.5t-24.5 -66t-56 -50.5t-100 -20q-71 0 -109.5 23t-56 55.5t-20.5 67t-3 57.5v380zM412 810l-25 49q-9 17 -15 26.5t-13 14t-17 5t-27 0.5h-24q-17 0 -23.5 -1.5t-6.5 -6.5t3.5 -10t20.5 -23q25 -27 43 -46t31 -30.5
t22.5 -16.5t18.5 -5q11 0 16.5 6.5t5.5 11.5t-2 10t-8 16z" />
    <glyph glyph-name="Uacute" unicode="&#xda;" horiz-adv-x="729" 
d="M177 648q0 26 -1.5 40.5t-11.5 24.5q-14 15 -35 15q-12 0 -21 -5t-14 -10q-10 -10 -11.5 -24.5t-1.5 -40.5v-373q0 -79 19 -134t55.5 -89t91 -49t126.5 -15q83 0 136.5 24.5t84 65t42.5 92t12 106.5v372q0 26 -1.5 40.5t-11.5 24.5q-14 15 -35 15q-12 0 -21 -5t-14 -10
q-10 -10 -11.5 -24.5t-1.5 -40.5v-381q0 -30 -5.5 -65.5t-24.5 -66t-56 -50.5t-100 -20q-71 0 -109.5 23t-56 55.5t-20.5 67t-3 57.5v380zM319 810q-6 -11 -8 -16t-2 -10t5.5 -11.5t16.5 -6.5q9 0 18.5 5t22.5 17t30.5 30.5t43.5 45.5q17 18 20.5 23t3.5 10t-6.5 6.5
t-23.5 1.5h-24q-17 0 -27 -0.5t-17 -5t-13 -14t-15 -26.5z" />
    <glyph glyph-name="Ucircumflex" unicode="&#xdb;" horiz-adv-x="729" 
d="M177 648q0 26 -1.5 40.5t-11.5 24.5q-14 15 -35 15q-12 0 -21 -5t-14 -10q-10 -10 -11.5 -24.5t-1.5 -40.5v-373q0 -79 19 -134t55.5 -89t91 -49t126.5 -15q83 0 136.5 24.5t84 65t42.5 92t12 106.5v372q0 26 -1.5 40.5t-11.5 24.5q-14 15 -35 15q-12 0 -21 -5t-14 -10
q-10 -10 -11.5 -24.5t-1.5 -40.5v-381q0 -30 -5.5 -65.5t-24.5 -66t-56 -50.5t-100 -20q-71 0 -109.5 23t-56 55.5t-20.5 67t-3 57.5v380zM365 864l46 -58q17 -20 22 -25t13 -6q5 -2 17 -2h26q4 0 10 1.5t6 6.5q0 3 -2 7t-13 17l-42 53q-14 17 -23 28t-17 17t-17.5 8
t-23.5 2q-16 0 -26.5 -2t-19 -7.5t-17.5 -16.5t-23 -29l-40 -51q-4 -5 -10.5 -13.5t-6.5 -12.5t4 -6q3 -2 9 -2h33q9 0 15 1t11 4.5t10.5 10t13.5 17.5z" />
    <glyph glyph-name="Udieresis" unicode="&#xdc;" horiz-adv-x="729" 
d="M177 648q0 26 -1.5 40.5t-11.5 24.5q-14 15 -35 15q-12 0 -21 -5t-14 -10q-10 -10 -11.5 -24.5t-1.5 -40.5v-373q0 -79 19 -134t55.5 -89t91 -49t126.5 -15q83 0 136.5 24.5t84 65t42.5 92t12 106.5v372q0 26 -1.5 40.5t-11.5 24.5q-14 15 -35 15q-12 0 -21 -5t-14 -10
q-10 -10 -11.5 -24.5t-1.5 -40.5v-381q0 -30 -5.5 -65.5t-24.5 -66t-56 -50.5t-100 -20q-71 0 -109.5 23t-56 55.5t-20.5 67t-3 57.5v380zM329 827q0 20 -13.5 33.5t-33.5 13.5t-33.5 -13.5t-13.5 -33.5t13.5 -33.5t33.5 -13.5t33.5 13.5t13.5 33.5zM494 827
q0 20 -13.5 33.5t-33.5 13.5t-33.5 -13.5t-13.5 -33.5t13.5 -33.5t33.5 -13.5t33.5 13.5t13.5 33.5z" />
    <glyph glyph-name="Yacute" unicode="&#xdd;" horiz-adv-x="615" 
d="M256 307v-240q0 -24 1.5 -40t11.5 -25q16 -14 35 -14q20 0 34 14q11 9 12.5 25t1.5 40v240l214 325q11 16 18 28.5t7 25.5q0 18 -13 30t-31 12q-9 0 -15 -2t-12 -7.5t-12.5 -15.5t-16.5 -25l-184 -286l-179 283q-10 16 -16.5 26t-12.5 16t-12.5 8.5t-15.5 2.5
q-23 0 -35 -14t-12 -30q0 -6 3.5 -16.5t22.5 -40.5zM262 810q-6 -11 -8 -16t-2 -10t5.5 -11.5t16.5 -6.5q9 0 18.5 5t22.5 17t30.5 30.5t43.5 45.5q17 18 20.5 23t3.5 10t-6.5 6.5t-23.5 1.5h-24q-17 0 -27 -0.5t-17 -5t-13 -14t-15 -26.5z" />
    <glyph glyph-name="Thorn" unicode="&#xde;" horiz-adv-x="635" 
d="M183 147h163q32 0 56 3.5t41.5 9t29.5 11t20 9.5q25 13 43.5 33.5t30.5 45t17.5 51t5.5 51.5q0 53 -20 96t-56 70q-35 27 -78.5 34.5t-88.5 7.5h-164v80q0 23 -1.5 39t-11.5 25q-7 8 -16.5 11.5t-18.5 3.5q-13 0 -22 -5t-14 -10q-9 -9 -10.5 -25t-1.5 -40v-581
q0 -23 1.5 -39t10.5 -25q15 -15 39 -15q17 0 26 7.5t13.5 19t5 25.5t0.5 27v80zM321 492q15 0 33.5 -1t37 -4.5t35.5 -11.5t30 -21q18 -19 26.5 -44.5t8.5 -50.5q0 -48 -19 -75t-46 -40.5t-56.5 -16.5t-49.5 -3h-138v268h138z" />
    <glyph glyph-name="germandbls" unicode="&#xdf;" horiz-adv-x="531" 
d="M140 510q0 25 3 51t14.5 47.5t33 35.5t59.5 14q13 0 28 -3.5t28 -11.5t21.5 -21.5t8.5 -33.5q0 -23 -14.5 -52t-28.5 -52q-15 -25 -29.5 -54t-14.5 -54q0 -31 19 -55.5t56 -53.5q44 -34 69.5 -62.5t25.5 -63.5q0 -16 -6.5 -31t-17 -26.5t-25.5 -18.5t-31 -7
q-23 0 -40.5 13.5t-28.5 27.5q-12 15 -19 18.5t-15 3.5q-11 0 -18.5 -4t-12 -10t-6.5 -12t-2 -10q0 -12 10.5 -28.5t29.5 -32t46 -26t60 -10.5q35 0 64.5 12.5t50.5 34.5t33 51t12 61q0 15 -3 32.5t-14 38.5t-33 46t-59 54q-20 16 -36.5 33.5t-16.5 43.5q0 6 1.5 12t5.5 15
t11.5 22t19.5 33q16 26 25 44.5t13 32t5 22.5t1 16q0 24 -9.5 48t-30 43.5t-53.5 32t-79 12.5q-19 0 -40 -3t-42 -10.5t-41 -21.5t-37 -35q-22 -28 -30 -63.5t-8 -77.5v-458q0 -22 1.5 -36t10.5 -23q8 -8 16 -10t15 -2q19 0 31 12q8 8 10.5 22.5t2.5 36.5v451z" />
    <glyph glyph-name="agrave" unicode="&#xe0;" 
d="M415 73q4 -14 8.5 -29t11.5 -27.5t16 -20.5t22 -8q17 0 29.5 10.5t12.5 23.5q0 12 -4.5 26.5t-5.5 18.5q-5 12 -9.5 31t-4.5 55q0 9 0.5 31.5t1 48.5t1 49.5t0.5 33.5q0 45 -5 84t-26 68t-63.5 45.5t-116.5 16.5q-71 0 -114.5 -18t-67.5 -41.5t-32 -47t-8 -34.5
q0 -16 11.5 -26.5t27.5 -10.5q20 0 28 12.5t15 29.5q8 20 23.5 34t35 22.5t42 12t45.5 3.5q43 0 66.5 -11t34.5 -30t13.5 -43t3.5 -50q-17 -6 -27.5 -9t-21.5 -6q-8 -2 -28.5 -6t-43.5 -8t-44 -8t-30 -6q-23 -5 -52.5 -12.5t-55.5 -24t-44 -44.5t-18 -72q0 -27 10 -53.5
t31 -47.5t52.5 -34t74.5 -13q42 0 75.5 9.5t59 23t43 28t27.5 24.5zM408 270q0 -44 -3.5 -78.5t-18.5 -60.5q-11 -20 -29 -34t-39.5 -23t-44 -13.5t-43.5 -4.5q-27 0 -46 8.5t-30.5 21t-17 27.5t-5.5 29q0 7 2.5 18t9.5 22.5t20 21.5t35 16q31 8 68 14.5t84 17.5
q20 5 34 9.5t24 8.5zM329 623l-25 49q-9 17 -15 26.5t-13 14t-17 5t-27 0.5h-24q-17 0 -23.5 -1.5t-6.5 -6.5t3.5 -10t20.5 -23q25 -27 43 -46t31 -30.5t22.5 -16.5t18.5 -5q11 0 16.5 6.5t5.5 11.5t-2 10t-8 16z" />
    <glyph glyph-name="aacute" unicode="&#xe1;" 
d="M415 73q4 -14 8.5 -29t11.5 -27.5t16 -20.5t22 -8q17 0 29.5 10.5t12.5 23.5q0 12 -4.5 26.5t-5.5 18.5q-5 12 -9.5 31t-4.5 55q0 9 0.5 31.5t1 48.5t1 49.5t0.5 33.5q0 45 -5 84t-26 68t-63.5 45.5t-116.5 16.5q-71 0 -114.5 -18t-67.5 -41.5t-32 -47t-8 -34.5
q0 -16 11.5 -26.5t27.5 -10.5q20 0 28 12.5t15 29.5q8 20 23.5 34t35 22.5t42 12t45.5 3.5q43 0 66.5 -11t34.5 -30t13.5 -43t3.5 -50q-17 -6 -27.5 -9t-21.5 -6q-8 -2 -28.5 -6t-43.5 -8t-44 -8t-30 -6q-23 -5 -52.5 -12.5t-55.5 -24t-44 -44.5t-18 -72q0 -27 10 -53.5
t31 -47.5t52.5 -34t74.5 -13q42 0 75.5 9.5t59 23t43 28t27.5 24.5zM408 270q0 -44 -3.5 -78.5t-18.5 -60.5q-11 -20 -29 -34t-39.5 -23t-44 -13.5t-43.5 -4.5q-27 0 -46 8.5t-30.5 21t-17 27.5t-5.5 29q0 7 2.5 18t9.5 22.5t20 21.5t35 16q31 8 68 14.5t84 17.5
q20 5 34 9.5t24 8.5zM236 623q-6 -11 -8 -16t-2 -10t5.5 -11.5t16.5 -6.5q9 0 18.5 5t22.5 17t30.5 30.5t43.5 45.5q17 18 20.5 23t3.5 10t-6.5 6.5t-23.5 1.5h-24q-17 0 -27 -0.5t-17 -5t-13 -14t-15 -26.5z" />
    <glyph glyph-name="acircumflex" unicode="&#xe2;" 
d="M415 73q4 -14 8.5 -29t11.5 -27.5t16 -20.5t22 -8q17 0 29.5 10.5t12.5 23.5q0 12 -4.5 26.5t-5.5 18.5q-5 12 -9.5 31t-4.5 55q0 9 0.5 31.5t1 48.5t1 49.5t0.5 33.5q0 45 -5 84t-26 68t-63.5 45.5t-116.5 16.5q-71 0 -114.5 -18t-67.5 -41.5t-32 -47t-8 -34.5
q0 -16 11.5 -26.5t27.5 -10.5q20 0 28 12.5t15 29.5q8 20 23.5 34t35 22.5t42 12t45.5 3.5q43 0 66.5 -11t34.5 -30t13.5 -43t3.5 -50q-17 -6 -27.5 -9t-21.5 -6q-8 -2 -28.5 -6t-43.5 -8t-44 -8t-30 -6q-23 -5 -52.5 -12.5t-55.5 -24t-44 -44.5t-18 -72q0 -27 10 -53.5
t31 -47.5t52.5 -34t74.5 -13q42 0 75.5 9.5t59 23t43 28t27.5 24.5zM408 270q0 -44 -3.5 -78.5t-18.5 -60.5q-11 -20 -29 -34t-39.5 -23t-44 -13.5t-43.5 -4.5q-27 0 -46 8.5t-30.5 21t-17 27.5t-5.5 29q0 7 2.5 18t9.5 22.5t20 21.5t35 16q31 8 68 14.5t84 17.5
q20 5 34 9.5t24 8.5zM282 677l46 -58q17 -20 22 -25t13 -6q5 -2 17 -2h26q4 0 10 1.5t6 6.5q0 3 -2 7t-13 17l-42 53q-14 17 -23 28t-17 17t-17.5 8t-23.5 2q-16 0 -26.5 -2t-19 -7.5t-17.5 -16.5t-23 -29l-40 -51q-4 -5 -10.5 -13.5t-6.5 -12.5t4 -6q3 -2 9 -2h33q9 0 15 1
t11 4.5t10.5 10t13.5 17.5z" />
    <glyph glyph-name="atilde" unicode="&#xe3;" 
d="M415 73q4 -14 8.5 -29t11.5 -27.5t16 -20.5t22 -8q17 0 29.5 10.5t12.5 23.5q0 12 -4.5 26.5t-5.5 18.5q-5 12 -9.5 31t-4.5 55q0 9 0.5 31.5t1 48.5t1 49.5t0.5 33.5q0 45 -5 84t-26 68t-63.5 45.5t-116.5 16.5q-71 0 -114.5 -18t-67.5 -41.5t-32 -47t-8 -34.5
q0 -16 11.5 -26.5t27.5 -10.5q20 0 28 12.5t15 29.5q8 20 23.5 34t35 22.5t42 12t45.5 3.5q43 0 66.5 -11t34.5 -30t13.5 -43t3.5 -50q-17 -6 -27.5 -9t-21.5 -6q-8 -2 -28.5 -6t-43.5 -8t-44 -8t-30 -6q-23 -5 -52.5 -12.5t-55.5 -24t-44 -44.5t-18 -72q0 -27 10 -53.5
t31 -47.5t52.5 -34t74.5 -13q42 0 75.5 9.5t59 23t43 28t27.5 24.5zM408 270q0 -44 -3.5 -78.5t-18.5 -60.5q-11 -20 -29 -34t-39.5 -23t-44 -13.5t-43.5 -4.5q-27 0 -46 8.5t-30.5 21t-17 27.5t-5.5 29q0 7 2.5 18t9.5 22.5t20 21.5t35 16q31 8 68 14.5t84 17.5
q20 5 34 9.5t24 8.5zM160 595q8 0 11.5 6.5t5.5 9.5q5 13 10.5 21.5t19.5 8.5q7 0 17.5 -2.5t21.5 -6t20 -7t14 -5.5q22 -8 35 -12t21 -6t12.5 -2.5t9.5 -0.5q21 0 35 8t22 19.5t11.5 24t3.5 20.5q0 15 -8.5 23.5t-16.5 8.5q-10 0 -14.5 -7.5t-7.5 -15.5q-5 -11 -11 -16.5
t-19 -5.5q-4 0 -8 0.5t-11.5 2.5t-20 6.5t-33.5 12.5q-10 5 -33.5 12.5t-45.5 7.5q-16 0 -28.5 -6.5t-21.5 -17t-13.5 -23.5t-4.5 -25q0 -18 9.5 -25.5t17.5 -7.5z" />
    <glyph glyph-name="adieresis" unicode="&#xe4;" 
d="M415 73q4 -14 8.5 -29t11.5 -27.5t16 -20.5t22 -8q17 0 29.5 10.5t12.5 23.5q0 12 -4.5 26.5t-5.5 18.5q-5 12 -9.5 31t-4.5 55q0 9 0.5 31.5t1 48.5t1 49.5t0.5 33.5q0 45 -5 84t-26 68t-63.5 45.5t-116.5 16.5q-71 0 -114.5 -18t-67.5 -41.5t-32 -47t-8 -34.5
q0 -16 11.5 -26.5t27.5 -10.5q20 0 28 12.5t15 29.5q8 20 23.5 34t35 22.5t42 12t45.5 3.5q43 0 66.5 -11t34.5 -30t13.5 -43t3.5 -50q-17 -6 -27.5 -9t-21.5 -6q-8 -2 -28.5 -6t-43.5 -8t-44 -8t-30 -6q-23 -5 -52.5 -12.5t-55.5 -24t-44 -44.5t-18 -72q0 -27 10 -53.5
t31 -47.5t52.5 -34t74.5 -13q42 0 75.5 9.5t59 23t43 28t27.5 24.5zM408 270q0 -44 -3.5 -78.5t-18.5 -60.5q-11 -20 -29 -34t-39.5 -23t-44 -13.5t-43.5 -4.5q-27 0 -46 8.5t-30.5 21t-17 27.5t-5.5 29q0 7 2.5 18t9.5 22.5t20 21.5t35 16q31 8 68 14.5t84 17.5
q20 5 34 9.5t24 8.5zM246 640q0 20 -13.5 33.5t-33.5 13.5t-33.5 -13.5t-13.5 -33.5t13.5 -33.5t33.5 -13.5t33.5 13.5t13.5 33.5zM411 640q0 20 -13.5 33.5t-33.5 13.5t-33.5 -13.5t-13.5 -33.5t13.5 -33.5t33.5 -13.5t33.5 13.5t13.5 33.5z" />
    <glyph glyph-name="aring" unicode="&#xe5;" 
d="M415 73q4 -14 8.5 -29t11.5 -27.5t16 -20.5t22 -8q17 0 29.5 10.5t12.5 23.5q0 12 -4.5 26.5t-5.5 18.5q-5 12 -9.5 31t-4.5 55q0 9 0.5 31.5t1 48.5t1 49.5t0.5 33.5q0 45 -5 84t-26 68t-63.5 45.5t-116.5 16.5q-71 0 -114.5 -18t-67.5 -41.5t-32 -47t-8 -34.5
q0 -16 11.5 -26.5t27.5 -10.5q20 0 28 12.5t15 29.5q8 20 23.5 34t35 22.5t42 12t45.5 3.5q43 0 66.5 -11t34.5 -30t13.5 -43t3.5 -50q-17 -6 -27.5 -9t-21.5 -6q-8 -2 -28.5 -6t-43.5 -8t-44 -8t-30 -6q-23 -5 -52.5 -12.5t-55.5 -24t-44 -44.5t-18 -72q0 -27 10 -53.5
t31 -47.5t52.5 -34t74.5 -13q42 0 75.5 9.5t59 23t43 28t27.5 24.5zM408 270q0 -44 -3.5 -78.5t-18.5 -60.5q-11 -20 -29 -34t-39.5 -23t-44 -13.5t-43.5 -4.5q-27 0 -46 8.5t-30.5 21t-17 27.5t-5.5 29q0 7 2.5 18t9.5 22.5t20 21.5t35 16q31 8 68 14.5t84 17.5
q20 5 34 9.5t24 8.5zM374 656q0 19 -7.5 36t-20 29.5t-29 20t-35.5 7.5t-36 -7t-29.5 -20t-20 -30t-7.5 -36t7 -35.5t19.5 -29t29.5 -20t36 -7.5t36 7.5t30 20t20 29t7 35.5zM334 656q0 -22 -15.5 -37t-37.5 -15q-21 0 -36.5 15t-15.5 37t15 37.5t37 15.5q23 0 38 -15.5
t15 -37.5z" />
    <glyph glyph-name="ae" unicode="&#xe6;" horiz-adv-x="896" 
d="M392 325q-24 -7 -40.5 -11.5t-31.5 -8.5t-32.5 -7t-43.5 -7q-29 -5 -61.5 -12t-64.5 -21q-27 -12 -51.5 -44.5t-24.5 -80.5q0 -24 8.5 -49.5t28.5 -46.5t52.5 -35t79.5 -14q40 0 73.5 9t61 23t49 30.5t38.5 31.5q8 -11 21 -27t36 -31t57 -25.5t84 -10.5q54 0 93.5 16.5
t66 40.5t39.5 51t13 48q0 23 -12.5 29t-20.5 6q-23 0 -34 -23q-6 -14 -15 -32t-25.5 -34t-42 -27t-64.5 -11q-42 0 -71 15.5t-47 42t-26 60.5t-9 72h296q17 0 32 1t25.5 6t16.5 16.5t6 32.5q0 36 -13 77t-41.5 75.5t-72.5 57t-107 22.5q-37 0 -65 -8t-48 -19.5t-33 -23.5
t-21 -20q-6 10 -16 22t-29 23t-50 18.5t-79 7.5q-20 0 -42.5 -2t-46 -8t-46 -17t-41.5 -29q-24 -23 -32.5 -49t-8.5 -40t10 -26.5t29 -12.5q22 0 30.5 13t14.5 29q9 25 24.5 40t34 23t39 10.5t40.5 2.5q5 0 17.5 -0.5t27.5 -5t29.5 -13.5t24.5 -25q4 -6 6 -11.5t3 -14
t1.5 -21.5t0.5 -34v-14zM476 301q4 77 44 120t103 43q14 0 38 -5t47 -21.5t40 -49t19 -87.5h-291zM392 203q0 -25 -4 -42.5t-9 -29.5t-11 -19t-10 -11q-23 -25 -54.5 -37.5t-65.5 -12.5q-31 0 -52 9t-33.5 22.5t-18 28.5t-5.5 28q0 26 12 43t29.5 27.5t37.5 15.5t37 8
q25 4 41.5 7t31 6t31.5 7.5t43 11.5v-62z" />
    <glyph glyph-name="ccedilla" unicode="&#xe7;" 
d="M299 -12q63 2 105 23.5t66.5 49t35 53.5t10.5 38q0 18 -13 29t-27 11q-11 0 -17.5 -5t-11.5 -11q-2 -2 -5.5 -8.5t-7.5 -14t-8 -14t-5 -9.5q-20 -36 -55.5 -55t-77.5 -19q-74 0 -116.5 54.5t-42.5 151.5q0 93 44 146.5t117 53.5q33 0 56.5 -9.5t39 -23t25 -27.5t14.5 -22
q7 -13 13 -20t11 -10.5t9.5 -4t8.5 -0.5q15 0 27 10.5t12 27.5q0 13 -5.5 25.5t-12.5 22.5q-11 17 -27 34.5t-39.5 32t-56 23.5t-76.5 9q-74 0 -121.5 -25.5t-75.5 -65.5t-39 -88t-11 -93q0 -58 11.5 -96.5t25.5 -62.5q9 -17 22.5 -34t34.5 -32t51.5 -26.5t74.5 -16.5
q-16 -12 -22 -18.5t-6 -17.5q0 -13 9 -20t14 -7l32 1l5 -2t11 -6.5t11 -10.5t5 -15q0 -12 -6 -19t-14 -11.5t-15 -6.5t-10 -2q-6 -1 -10.5 -1.5t-11.5 -1t-17 -0.5h-26q-14 0 -21.5 -7t-7.5 -15q0 -10 7.5 -15t18 -7.5t21 -3t15.5 -0.5q23 0 48.5 4.5t46.5 15t34.5 27
t13.5 41.5q0 20 -10 35.5t-21 22.5q-16 10 -32.5 12t-28.5 3z" />
    <glyph glyph-name="egrave" unicode="&#xe8;" 
d="M444 242q13 0 26.5 1t25 6t18.5 16.5t7 32.5q0 11 -3 32.5t-11.5 47.5t-24.5 53t-42 49t-63 36t-88 14q-63 0 -109 -21t-76 -57.5t-45 -86t-15 -105.5q0 -57 14.5 -107t45 -86.5t77 -57.5t110.5 -21q48 0 82.5 11t58.5 27t38.5 34t23.5 32q6 10 11.5 22t5.5 24
q0 13 -9.5 23t-23.5 10q-16 0 -24 -9.5t-13 -16.5q-11 -17 -23.5 -34t-29 -30t-39 -21t-54.5 -8q-31 0 -59.5 10t-51 32.5t-36.5 59t-15 88.5h311zM134 302q2 17 6.5 40t17.5 46q7 13 18 27t27 25t36.5 18.5t46.5 7.5q43 0 73 -18.5t47 -47.5t20.5 -52.5t5.5 -45.5h-298z
M329 623l-25 49q-9 17 -15 26.5t-13 14t-17 5t-27 0.5h-24q-17 0 -23.5 -1.5t-6.5 -6.5t3.5 -10t20.5 -23q25 -27 43 -46t31 -30.5t22.5 -16.5t18.5 -5q11 0 16.5 6.5t5.5 11.5t-2 10t-8 16z" />
    <glyph glyph-name="eacute" unicode="&#xe9;" 
d="M444 242q13 0 26.5 1t25 6t18.5 16.5t7 32.5q0 11 -3 32.5t-11.5 47.5t-24.5 53t-42 49t-63 36t-88 14q-63 0 -109 -21t-76 -57.5t-45 -86t-15 -105.5q0 -57 14.5 -107t45 -86.5t77 -57.5t110.5 -21q48 0 82.5 11t58.5 27t38.5 34t23.5 32q6 10 11.5 22t5.5 24
q0 13 -9.5 23t-23.5 10q-16 0 -24 -9.5t-13 -16.5q-11 -17 -23.5 -34t-29 -30t-39 -21t-54.5 -8q-31 0 -59.5 10t-51 32.5t-36.5 59t-15 88.5h311zM134 302q2 17 6.5 40t17.5 46q7 13 18 27t27 25t36.5 18.5t46.5 7.5q43 0 73 -18.5t47 -47.5t20.5 -52.5t5.5 -45.5h-298z
M236 623q-6 -11 -8 -16t-2 -10t5.5 -11.5t16.5 -6.5q9 0 18.5 5t22.5 17t30.5 30.5t43.5 45.5q17 18 20.5 23t3.5 10t-6.5 6.5t-23.5 1.5h-24q-17 0 -27 -0.5t-17 -5t-13 -14t-15 -26.5z" />
    <glyph glyph-name="ecircumflex" unicode="&#xea;" 
d="M444 242q13 0 26.5 1t25 6t18.5 16.5t7 32.5q0 11 -3 32.5t-11.5 47.5t-24.5 53t-42 49t-63 36t-88 14q-63 0 -109 -21t-76 -57.5t-45 -86t-15 -105.5q0 -57 14.5 -107t45 -86.5t77 -57.5t110.5 -21q48 0 82.5 11t58.5 27t38.5 34t23.5 32q6 10 11.5 22t5.5 24
q0 13 -9.5 23t-23.5 10q-16 0 -24 -9.5t-13 -16.5q-11 -17 -23.5 -34t-29 -30t-39 -21t-54.5 -8q-31 0 -59.5 10t-51 32.5t-36.5 59t-15 88.5h311zM134 302q2 17 6.5 40t17.5 46q7 13 18 27t27 25t36.5 18.5t46.5 7.5q43 0 73 -18.5t47 -47.5t20.5 -52.5t5.5 -45.5h-298z
M282 677l46 -58q17 -20 22 -25t13 -6q5 -2 17 -2h26q4 0 10 1.5t6 6.5q0 3 -2 7t-13 17l-42 53q-14 17 -23 28t-17 17t-17.5 8t-23.5 2q-16 0 -26.5 -2t-19 -7.5t-17.5 -16.5t-23 -29l-40 -51q-4 -5 -10.5 -13.5t-6.5 -12.5t4 -6q3 -2 9 -2h33q9 0 15 1t11 4.5t10.5 10
t13.5 17.5z" />
    <glyph glyph-name="edieresis" unicode="&#xeb;" 
d="M444 242q13 0 26.5 1t25 6t18.5 16.5t7 32.5q0 11 -3 32.5t-11.5 47.5t-24.5 53t-42 49t-63 36t-88 14q-63 0 -109 -21t-76 -57.5t-45 -86t-15 -105.5q0 -57 14.5 -107t45 -86.5t77 -57.5t110.5 -21q48 0 82.5 11t58.5 27t38.5 34t23.5 32q6 10 11.5 22t5.5 24
q0 13 -9.5 23t-23.5 10q-16 0 -24 -9.5t-13 -16.5q-11 -17 -23.5 -34t-29 -30t-39 -21t-54.5 -8q-31 0 -59.5 10t-51 32.5t-36.5 59t-15 88.5h311zM134 302q2 17 6.5 40t17.5 46q7 13 18 27t27 25t36.5 18.5t46.5 7.5q43 0 73 -18.5t47 -47.5t20.5 -52.5t5.5 -45.5h-298z
M246 640q0 20 -13.5 33.5t-33.5 13.5t-33.5 -13.5t-13.5 -33.5t13.5 -33.5t33.5 -13.5t33.5 13.5t13.5 33.5zM411 640q0 20 -13.5 33.5t-33.5 13.5t-33.5 -13.5t-13.5 -33.5t13.5 -33.5t33.5 -13.5t33.5 13.5t13.5 33.5z" />
    <glyph glyph-name="igrave" unicode="&#xec;" horiz-adv-x="240" 
d="M164 459q0 13 -0.5 28t-5.5 23t-12.5 14t-24.5 6q-20 0 -33 -13q-8 -9 -10 -22t-2 -36v-400q0 -12 1 -24.5t5 -23t13 -17t25 -6.5q12 0 23.5 7t16.5 21q2 5 3 13.5t1 29.5v400zM169 623l-25 49q-9 17 -15 26.5t-13 14t-17 5t-27 0.5h-24q-17 0 -23.5 -1.5t-6.5 -6.5
t3.5 -10t20.5 -23q25 -27 43 -46t31 -30.5t22.5 -16.5t18.5 -5q11 0 16.5 6.5t5.5 11.5t-2 10t-8 16z" />
    <glyph glyph-name="iacute" unicode="&#xed;" horiz-adv-x="240" 
d="M164 459q0 13 -0.5 28t-5.5 23t-12.5 14t-24.5 6q-20 0 -33 -13q-8 -9 -10 -22t-2 -36v-400q0 -12 1 -24.5t5 -23t13 -17t25 -6.5q12 0 23.5 7t16.5 21q2 5 3 13.5t1 29.5v400zM76 623q-6 -11 -8 -16t-2 -10t5.5 -11.5t16.5 -6.5q9 0 18.5 5t22.5 17t30.5 30.5t43.5 45.5
q17 18 20.5 23t3.5 10t-6.5 6.5t-23.5 1.5h-24q-17 0 -27 -0.5t-17 -5t-13 -14t-15 -26.5z" />
    <glyph glyph-name="icircumflex" unicode="&#xee;" horiz-adv-x="240" 
d="M164 459q0 13 -0.5 28t-5.5 23t-12.5 14t-24.5 6q-20 0 -33 -13q-8 -9 -10 -22t-2 -36v-400q0 -12 1 -24.5t5 -23t13 -17t25 -6.5q12 0 23.5 7t16.5 21q2 5 3 13.5t1 29.5v400zM122 677l46 -58q17 -20 22 -25t13 -6q5 -2 17 -2h26q4 0 10 1.5t6 6.5q0 3 -2 7t-13 17
l-42 53q-14 17 -23 28t-17 17t-17.5 8t-23.5 2q-16 0 -26.5 -2t-19 -7.5t-17.5 -16.5t-23 -29l-40 -51q-4 -5 -10.5 -13.5t-6.5 -12.5t4 -6q3 -2 9 -2h33q9 0 15 1t11 4.5t10.5 10t13.5 17.5z" />
    <glyph glyph-name="idieresis" unicode="&#xef;" horiz-adv-x="240" 
d="M164 459q0 13 -0.5 28t-5.5 23t-12.5 14t-24.5 6q-20 0 -33 -13q-8 -9 -10 -22t-2 -36v-400q0 -12 1 -24.5t5 -23t13 -17t25 -6.5q12 0 23.5 7t16.5 21q2 5 3 13.5t1 29.5v400zM86 640q0 20 -13.5 33.5t-33.5 13.5t-33.5 -13.5t-13.5 -33.5t13.5 -33.5t33.5 -13.5
t33.5 13.5t13.5 33.5zM251 640q0 20 -13.5 33.5t-33.5 13.5t-33.5 -13.5t-13.5 -33.5t13.5 -33.5t33.5 -13.5t33.5 13.5t13.5 33.5z" />
    <glyph glyph-name="eth" unicode="&#xf0;" horiz-adv-x="552" 
d="M317 666l-46 42q-16 12 -25.5 16t-18.5 4q-11 0 -21 -7t-10 -21q0 -6 2.5 -13.5t12.5 -16.5q2 -2 8 -7t12 -10.5t12 -10.5t8 -7l-72 -33q-18 -8 -27 -14t-9 -20t10 -20t17 -6q6 0 11.5 1.5t19.5 8.5l90 42q11 -13 19.5 -24t16.5 -23t15.5 -25.5l17.5 -31.5
q-21 11 -43.5 19.5t-60.5 8.5q-34 0 -72.5 -12t-71.5 -42.5t-54.5 -82t-21.5 -129.5q0 -80 20.5 -125.5t51.5 -75.5q21 -20 43.5 -32.5t44 -19.5t42 -9t37.5 -2q55 0 99.5 19t76 54t48.5 84t17 109q0 108 -41.5 197.5t-114.5 174.5l40 19q18 8 26.5 14.5t8.5 20.5t-10 20
t-16 6t-12 -2.5t-20 -9.5zM427 257q0 -62 -16 -101.5t-39.5 -61.5t-50 -30t-46.5 -8q-7 0 -20.5 1.5t-30 7.5t-34 18t-32 33.5t-24 53.5t-9.5 78q0 38 8.5 78t31.5 72q19 26 47.5 39t59.5 13q22 0 49 -8t50.5 -30t39.5 -59.5t16 -95.5z" />
    <glyph glyph-name="ntilde" unicode="&#xf1;" horiz-adv-x="573" 
d="M503 331q0 12 -0.5 29.5t-3.5 36t-10 36.5t-20 33q-27 31 -62.5 47.5t-83.5 16.5q-35 0 -61 -9t-45.5 -22.5t-33.5 -29t-24 -28.5q0 16 -0.5 27t-1 19t-2.5 13.5t-5 10.5q-3 7 -12.5 13t-21.5 6q-11 0 -18.5 -4t-12.5 -8q-8 -8 -9.5 -22t-1.5 -35v-402q0 -22 1.5 -36.5
t10.5 -22.5q14 -12 31 -12t31 12q9 8 11 22.5t2 36.5v165q0 41 1.5 67t4.5 43t7.5 27.5t10.5 20.5q18 33 52 52.5t72 19.5q27 0 52 -12.5t39 -37.5q8 -14 12 -37t4 -61v-247q0 -22 1.5 -36.5t10.5 -22.5q13 -12 32 -12q17 0 31 12q9 8 10.5 22.5t1.5 36.5v272zM165 595
q8 0 11.5 6.5t5.5 9.5q5 13 10.5 21.5t19.5 8.5q7 0 17.5 -2.5t21.5 -6t20 -7t14 -5.5q22 -8 35 -12t21 -6t12.5 -2.5t9.5 -0.5q21 0 35 8t22 19.5t11.5 24t3.5 20.5q0 15 -8.5 23.5t-16.5 8.5q-10 0 -14.5 -7.5t-7.5 -15.5q-5 -11 -11 -16.5t-19 -5.5q-4 0 -8 0.5
t-11.5 2.5t-20 6.5t-33.5 12.5q-10 5 -33.5 12.5t-45.5 7.5q-16 0 -28.5 -6.5t-21.5 -17t-13.5 -23.5t-4.5 -25q0 -18 9.5 -25.5t17.5 -7.5z" />
    <glyph glyph-name="ograve" unicode="&#xf2;" horiz-adv-x="573" 
d="M530 259q0 72 -19.5 123t-53 84t-78 48.5t-93.5 15.5q-115 0 -179.5 -72t-64.5 -209q0 -53 15 -100.5t45.5 -83t76.5 -56.5t107 -21q49 0 93 15.5t77.5 48.5t53.5 84t20 123zM441 259q0 -93 -40 -148t-114 -55t-115 54.5t-41 148.5q0 92 40.5 147.5t115.5 55.5
q70 0 112 -53t42 -150zM334 623l-25 49q-9 17 -15 26.5t-13 14t-17 5t-27 0.5h-24q-17 0 -23.5 -1.5t-6.5 -6.5t3.5 -10t20.5 -23q25 -27 43 -46t31 -30.5t22.5 -16.5t18.5 -5q11 0 16.5 6.5t5.5 11.5t-2 10t-8 16z" />
    <glyph glyph-name="oacute" unicode="&#xf3;" horiz-adv-x="573" 
d="M530 259q0 72 -19.5 123t-53 84t-78 48.5t-93.5 15.5q-115 0 -179.5 -72t-64.5 -209q0 -53 15 -100.5t45.5 -83t76.5 -56.5t107 -21q49 0 93 15.5t77.5 48.5t53.5 84t20 123zM441 259q0 -93 -40 -148t-114 -55t-115 54.5t-41 148.5q0 92 40.5 147.5t115.5 55.5
q70 0 112 -53t42 -150zM241 623q-6 -11 -8 -16t-2 -10t5.5 -11.5t16.5 -6.5q9 0 18.5 5t22.5 17t30.5 30.5t43.5 45.5q17 18 20.5 23t3.5 10t-6.5 6.5t-23.5 1.5h-24q-17 0 -27 -0.5t-17 -5t-13 -14t-15 -26.5z" />
    <glyph glyph-name="ocircumflex" unicode="&#xf4;" horiz-adv-x="573" 
d="M530 259q0 72 -19.5 123t-53 84t-78 48.5t-93.5 15.5q-115 0 -179.5 -72t-64.5 -209q0 -53 15 -100.5t45.5 -83t76.5 -56.5t107 -21q49 0 93 15.5t77.5 48.5t53.5 84t20 123zM441 259q0 -93 -40 -148t-114 -55t-115 54.5t-41 148.5q0 92 40.5 147.5t115.5 55.5
q70 0 112 -53t42 -150zM287 677l46 -58q17 -20 22 -25t13 -6q5 -2 17 -2h26q4 0 10 1.5t6 6.5q0 3 -2 7t-13 17l-42 53q-14 17 -23 28t-17 17t-17.5 8t-23.5 2q-16 0 -26.5 -2t-19 -7.5t-17.5 -16.5t-23 -29l-40 -51q-4 -5 -10.5 -13.5t-6.5 -12.5t4 -6q3 -2 9 -2h33
q9 0 15 1t11 4.5t10.5 10t13.5 17.5z" />
    <glyph glyph-name="otilde" unicode="&#xf5;" horiz-adv-x="573" 
d="M530 259q0 72 -19.5 123t-53 84t-78 48.5t-93.5 15.5q-115 0 -179.5 -72t-64.5 -209q0 -53 15 -100.5t45.5 -83t76.5 -56.5t107 -21q49 0 93 15.5t77.5 48.5t53.5 84t20 123zM441 259q0 -93 -40 -148t-114 -55t-115 54.5t-41 148.5q0 92 40.5 147.5t115.5 55.5
q70 0 112 -53t42 -150zM165 595q8 0 11.5 6.5t5.5 9.5q5 13 10.5 21.5t19.5 8.5q7 0 17.5 -2.5t21.5 -6t20 -7t14 -5.5q22 -8 35 -12t21 -6t12.5 -2.5t9.5 -0.5q21 0 35 8t22 19.5t11.5 24t3.5 20.5q0 15 -8.5 23.5t-16.5 8.5q-10 0 -14.5 -7.5t-7.5 -15.5q-5 -11 -11 -16.5
t-19 -5.5q-4 0 -8 0.5t-11.5 2.5t-20 6.5t-33.5 12.5q-10 5 -33.5 12.5t-45.5 7.5q-16 0 -28.5 -6.5t-21.5 -17t-13.5 -23.5t-4.5 -25q0 -18 9.5 -25.5t17.5 -7.5z" />
    <glyph glyph-name="odieresis" unicode="&#xf6;" horiz-adv-x="573" 
d="M530 259q0 72 -19.5 123t-53 84t-78 48.5t-93.5 15.5q-115 0 -179.5 -72t-64.5 -209q0 -53 15 -100.5t45.5 -83t76.5 -56.5t107 -21q49 0 93 15.5t77.5 48.5t53.5 84t20 123zM441 259q0 -93 -40 -148t-114 -55t-115 54.5t-41 148.5q0 92 40.5 147.5t115.5 55.5
q70 0 112 -53t42 -150zM251 640q0 20 -13.5 33.5t-33.5 13.5t-33.5 -13.5t-13.5 -33.5t13.5 -33.5t33.5 -13.5t33.5 13.5t13.5 33.5zM416 640q0 20 -13.5 33.5t-33.5 13.5t-33.5 -13.5t-13.5 -33.5t13.5 -33.5t33.5 -13.5t33.5 13.5t13.5 33.5z" />
    <glyph glyph-name="divide" unicode="&#xf7;" horiz-adv-x="583" 
d="M529 312v82h-474v-82h474zM241 450h101v100h-101v-100zM241 156h101v100h-101v-100z" />
    <glyph glyph-name="oslash" unicode="&#xf8;" horiz-adv-x="573" 
d="M130 39q34 -27 76.5 -39t80.5 -12q46 0 89.5 14.5t77.5 46.5t55 84.5t21 127.5q0 31 -4.5 59t-11.5 50.5t-15.5 39.5t-15.5 27l31 35q8 8 12 15.5t4 15.5t-8 17.5t-22 9.5q-8 0 -14.5 -4t-15.5 -15l-27 -32q-34 27 -74 39t-83 12q-11 0 -30 -1.5t-41.5 -7.5t-47 -17.5
t-46.5 -31.5q-45 -41 -61.5 -99t-16.5 -119q0 -57 15 -102t32 -70l-31 -35q-7 -8 -12 -14.5t-5 -14.5q0 -11 8.5 -20.5t21.5 -9.5q10 0 16 5t14 15zM422 369q5 -12 12 -38.5t7 -71.5q0 -94 -41 -148.5t-113 -54.5q-24 0 -42 5t-30.5 12t-20.5 14t-11 11zM151 150
q-5 11 -12 37.5t-7 71.5q0 93 40.5 148t113.5 55q23 0 41 -5t30.5 -12t20.5 -14t12 -11z" />
    <glyph glyph-name="ugrave" unicode="&#xf9;" horiz-adv-x="573" 
d="M69 182q0 -30 4 -57t21 -61q10 -21 28 -35.5t39 -23.5t43.5 -13t42.5 -4q37 0 64 9.5t47 23t33.5 29.5t23.5 28q0 -33 1 -47t6 -24q3 -7 12.5 -13t22.5 -6q10 0 17.5 3.5t12.5 8.5q9 8 10.5 22t1.5 35v401q0 23 -1.5 37t-10.5 23q-15 12 -32 12q-11 0 -18.5 -4t-12.5 -9
q-9 -8 -10.5 -22.5t-1.5 -36.5v-162q0 -44 -2 -71t-5 -44t-7.5 -26.5t-8.5 -18.5q-17 -32 -51.5 -52t-72.5 -20q-27 0 -52 13.5t-40 38.5q-13 21 -15 47.5t-2 52.5v242q0 23 -1.5 37t-10.5 23q-14 12 -31 12q-19 0 -32 -13q-9 -8 -10.5 -22t-1.5 -37v-276zM334 623l-25 49
q-9 17 -15 26.5t-13 14t-17 5t-27 0.5h-24q-17 0 -23.5 -1.5t-6.5 -6.5t3.5 -10t20.5 -23q25 -27 43 -46t31 -30.5t22.5 -16.5t18.5 -5q11 0 16.5 6.5t5.5 11.5t-2 10t-8 16z" />
    <glyph glyph-name="uacute" unicode="&#xfa;" horiz-adv-x="573" 
d="M69 182q0 -30 4 -57t21 -61q10 -21 28 -35.5t39 -23.5t43.5 -13t42.5 -4q37 0 64 9.5t47 23t33.5 29.5t23.5 28q0 -33 1 -47t6 -24q3 -7 12.5 -13t22.5 -6q10 0 17.5 3.5t12.5 8.5q9 8 10.5 22t1.5 35v401q0 23 -1.5 37t-10.5 23q-15 12 -32 12q-11 0 -18.5 -4t-12.5 -9
q-9 -8 -10.5 -22.5t-1.5 -36.5v-162q0 -44 -2 -71t-5 -44t-7.5 -26.5t-8.5 -18.5q-17 -32 -51.5 -52t-72.5 -20q-27 0 -52 13.5t-40 38.5q-13 21 -15 47.5t-2 52.5v242q0 23 -1.5 37t-10.5 23q-14 12 -31 12q-19 0 -32 -13q-9 -8 -10.5 -22t-1.5 -37v-276zM241 623
q-6 -11 -8 -16t-2 -10t5.5 -11.5t16.5 -6.5q9 0 18.5 5t22.5 17t30.5 30.5t43.5 45.5q17 18 20.5 23t3.5 10t-6.5 6.5t-23.5 1.5h-24q-17 0 -27 -0.5t-17 -5t-13 -14t-15 -26.5z" />
    <glyph glyph-name="ucircumflex" unicode="&#xfb;" horiz-adv-x="573" 
d="M69 182q0 -30 4 -57t21 -61q10 -21 28 -35.5t39 -23.5t43.5 -13t42.5 -4q37 0 64 9.5t47 23t33.5 29.5t23.5 28q0 -33 1 -47t6 -24q3 -7 12.5 -13t22.5 -6q10 0 17.5 3.5t12.5 8.5q9 8 10.5 22t1.5 35v401q0 23 -1.5 37t-10.5 23q-15 12 -32 12q-11 0 -18.5 -4t-12.5 -9
q-9 -8 -10.5 -22.5t-1.5 -36.5v-162q0 -44 -2 -71t-5 -44t-7.5 -26.5t-8.5 -18.5q-17 -32 -51.5 -52t-72.5 -20q-27 0 -52 13.5t-40 38.5q-13 21 -15 47.5t-2 52.5v242q0 23 -1.5 37t-10.5 23q-14 12 -31 12q-19 0 -32 -13q-9 -8 -10.5 -22t-1.5 -37v-276zM287 677l46 -58
q17 -20 22 -25t13 -6q5 -2 17 -2h26q4 0 10 1.5t6 6.5q0 3 -2 7t-13 17l-42 53q-14 17 -23 28t-17 17t-17.5 8t-23.5 2q-16 0 -26.5 -2t-19 -7.5t-17.5 -16.5t-23 -29l-40 -51q-4 -5 -10.5 -13.5t-6.5 -12.5t4 -6q3 -2 9 -2h33q9 0 15 1t11 4.5t10.5 10t13.5 17.5z" />
    <glyph glyph-name="udieresis" unicode="&#xfc;" horiz-adv-x="573" 
d="M69 182q0 -30 4 -57t21 -61q10 -21 28 -35.5t39 -23.5t43.5 -13t42.5 -4q37 0 64 9.5t47 23t33.5 29.5t23.5 28q0 -33 1 -47t6 -24q3 -7 12.5 -13t22.5 -6q10 0 17.5 3.5t12.5 8.5q9 8 10.5 22t1.5 35v401q0 23 -1.5 37t-10.5 23q-15 12 -32 12q-11 0 -18.5 -4t-12.5 -9
q-9 -8 -10.5 -22.5t-1.5 -36.5v-162q0 -44 -2 -71t-5 -44t-7.5 -26.5t-8.5 -18.5q-17 -32 -51.5 -52t-72.5 -20q-27 0 -52 13.5t-40 38.5q-13 21 -15 47.5t-2 52.5v242q0 23 -1.5 37t-10.5 23q-14 12 -31 12q-19 0 -32 -13q-9 -8 -10.5 -22t-1.5 -37v-276zM251 640
q0 20 -13.5 33.5t-33.5 13.5t-33.5 -13.5t-13.5 -33.5t13.5 -33.5t33.5 -13.5t33.5 13.5t13.5 33.5zM416 640q0 20 -13.5 33.5t-33.5 13.5t-33.5 -13.5t-13.5 -33.5t13.5 -33.5t33.5 -13.5t33.5 13.5t13.5 33.5z" />
    <glyph glyph-name="yacute" unicode="&#xfd;" horiz-adv-x="510" 
d="M210 0l-27 -69q-11 -26 -25.5 -45t-46.5 -19q-2 0 -8.5 0.5t-13.5 1t-13 1t-9 0.5q-17 0 -25.5 -11.5t-8.5 -23.5q0 -15 8.5 -23.5t21 -13.5t27 -6.5t27.5 -1.5q31 0 53.5 7t40 22.5t31 40t27.5 58.5l208 533q6 16 9 25.5t3 17.5q0 10 -9.5 23t-29.5 13q-10 0 -16 -2.5
t-11 -9t-10 -17.5t-11 -27l-147 -382l-142 387q-8 22 -17 36.5t-31 14.5q-19 0 -31 -13t-12 -27q0 -9 3 -18t8 -23zM210 623q-6 -11 -8 -16t-2 -10t5.5 -11.5t16.5 -6.5q9 0 18.5 5t22.5 17t30.5 30.5t43.5 45.5q17 18 20.5 23t3.5 10t-6.5 6.5t-23.5 1.5h-24
q-17 0 -27 -0.5t-17 -5t-13 -14t-15 -26.5z" />
    <glyph glyph-name="thorn" unicode="&#xfe;" horiz-adv-x="615" 
d="M161 54q10 -11 22.5 -22.5t28.5 -21t37.5 -16t49.5 -6.5q41 0 81.5 17t72.5 51t51.5 85.5t19.5 121.5q0 54 -13.5 102.5t-41 85t-69 58t-96.5 21.5q-30 0 -52 -6t-38.5 -16t-29.5 -21.5t-23 -22.5v191q0 23 -1 36.5t-10 22.5q-14 14 -32 14q-11 0 -19.5 -4.5t-13.5 -9.5
q-8 -8 -9.5 -22t-1.5 -37v-792q0 -23 1.5 -37t10.5 -22q12 -14 32 -14q11 0 19 4.5t13 9.5q9 9 10 22.5t1 36.5v191zM152 256q0 47 11 85t30.5 65t45.5 41.5t57 14.5q24 0 48.5 -10t45 -33.5t33 -61.5t12.5 -94q0 -6 -0.5 -24t-4.5 -40.5t-11.5 -47t-22.5 -42.5
q-16 -20 -42 -36.5t-62 -16.5q-38 0 -64.5 18t-43.5 43q-20 31 -26 67t-6 72z" />
    <glyph glyph-name="ydieresis" unicode="&#xff;" horiz-adv-x="510" 
d="M210 0l-27 -69q-11 -26 -25.5 -45t-46.5 -19q-2 0 -8.5 0.5t-13.5 1t-13 1t-9 0.5q-17 0 -25.5 -11.5t-8.5 -23.5q0 -15 8.5 -23.5t21 -13.5t27 -6.5t27.5 -1.5q31 0 53.5 7t40 22.5t31 40t27.5 58.5l208 533q6 16 9 25.5t3 17.5q0 10 -9.5 23t-29.5 13q-10 0 -16 -2.5
t-11 -9t-10 -17.5t-11 -27l-147 -382l-142 387q-8 22 -17 36.5t-31 14.5q-19 0 -31 -13t-12 -27q0 -9 3 -18t8 -23zM220 640q0 20 -13.5 33.5t-33.5 13.5t-33.5 -13.5t-13.5 -33.5t13.5 -33.5t33.5 -13.5t33.5 13.5t13.5 33.5zM385 640q0 20 -13.5 33.5t-33.5 13.5
t-33.5 -13.5t-13.5 -33.5t13.5 -33.5t33.5 -13.5t33.5 13.5t13.5 33.5z" />
    <glyph glyph-name="dotlessi" unicode="&#x131;" horiz-adv-x="240" 
d="M164 459q0 13 -0.5 28t-5.5 23t-12.5 14t-24.5 6q-20 0 -33 -13q-8 -9 -10 -22t-2 -36v-400q0 -12 1 -24.5t5 -23t13 -17t25 -6.5q12 0 23.5 7t16.5 21q2 5 3 13.5t1 29.5v400z" />
    <glyph glyph-name="Lslash" unicode="&#x141;" horiz-adv-x="573" 
d="M180 408v241q0 25 -1.5 40t-11.5 24q-14 15 -36 15q-12 0 -21 -5t-14 -10q-9 -9 -10.5 -23.5t-1.5 -40.5v-321l-47 -40q-15 -13 -20.5 -19t-5.5 -17q0 -8 8.5 -19.5t22.5 -11.5q9 0 15.5 4.5t26.5 21.5v-167q0 -27 2.5 -43t10.5 -24.5t24 -10.5t43 -2h319q12 0 23.5 0.5
t21.5 3.5t16 11t6 23t-6.5 23t-16 11.5t-21.5 4t-23 0.5h-303v250l133 113q16 14 21 19.5t5 16.5q0 8 -8.5 19.5t-22.5 11.5q-9 0 -15 -4.5t-20 -15.5z" />
    <glyph glyph-name="lslash" unicode="&#x142;" horiz-adv-x="240" 
d="M19 320q-15 -13 -20 -18.5t-5 -16.5q0 -12 8.5 -20.5t20.5 -8.5q8 0 14.5 4t26.5 22v-221q0 -24 1.5 -37.5t10.5 -22.5q15 -13 32 -13q11 0 19 4.5t13 9.5q9 8 10 21.5t1 37.5v294l49 40q15 13 20 19t5 16q0 12 -8 21t-21 9q-8 0 -14.5 -4t-30.5 -24v223q0 23 -1 37
t-10 22q-12 14 -32 14q-11 0 -19 -4.5t-13 -9.5q-9 -8 -10.5 -22t-1.5 -37v-297z" />
    <glyph glyph-name="OE" unicode="&#x152;" horiz-adv-x="1010" 
d="M628 330h255q12 0 23.5 0.5t21 4t15.5 11.5t6 23t-6 22.5t-15.5 11t-21.5 4t-23 0.5h-255v232h279h24t21.5 3.5t16 11.5t6.5 23t-6.5 23t-16 11.5t-21.5 4t-24 0.5h-307q-21 0 -32.5 -2t-16.5 -9t-6 -22t-1 -40v-18q-9 12 -24.5 30t-40 34t-59.5 27.5t-83 11.5
q-66 0 -119.5 -25t-91 -73t-57.5 -117t-20 -156q0 -86 20 -154t57.5 -116t91.5 -73.5t121 -25.5q48 0 82.5 11.5t58.5 27.5t39.5 34t24.5 30v-34q0 -15 0.5 -25.5t4 -17.5t11.5 -10.5t22 -3.5h341q12 0 23.5 0.5t21 4t15.5 11t6 22.5t-6 23t-15.5 11.5t-21.5 4t-23 0.5h-295
v253zM535 313q0 -58 -9 -97.5t-16 -53.5q-12 -26 -29 -44.5t-38 -30t-44 -17t-46 -5.5q-57 0 -99.5 27.5t-67.5 72.5q-24 44 -31.5 93t-7.5 100q0 12 1 39t6.5 59.5t18 67t35.5 63t58 46.5t86 18q60 0 96.5 -24t55.5 -59.5t25 -76.5t6 -75v-103z" />
    <glyph glyph-name="oe" unicode="&#x153;" horiz-adv-x="948" 
d="M825 241q16 0 30.5 1t25.5 5.5t17.5 15t6.5 30.5q0 34 -11 75t-38 77t-72 60.5t-112 24.5q-24 0 -49 -4t-49 -14.5t-47 -29.5t-44 -49q-25 33 -51.5 52t-52 29t-49 13t-42.5 3q-52 0 -90 -14.5t-65 -37.5t-43.5 -53t-26 -60t-13 -58.5t-3.5 -49.5q0 -55 15.5 -104
t46 -85.5t76 -58t104.5 -21.5q38 0 68 8.5t53.5 22.5t41 30.5t31.5 33.5q10 -14 24.5 -30.5t37.5 -31t55.5 -24t78.5 -9.5q64 0 104.5 20t63.5 46t31.5 50.5t8.5 33.5q0 12 -7.5 22.5t-22.5 10.5q-16 0 -23 -9t-14 -22q-5 -9 -14 -24.5t-25.5 -29.5t-41.5 -24.5t-61 -10.5
q-53 0 -83 24.5t-45 56.5t-18.5 63.5t-4.5 45.5h298zM526 300q1 43 14.5 74t34.5 51t46.5 29.5t51.5 9.5q42 0 72.5 -18t44.5 -41q19 -29 22.5 -56t5.5 -49h-292zM292 56q-39 0 -69 16t-49.5 43.5t-29.5 64.5t-10 79q0 43 10 80t29.5 64.5t49 43t67.5 15.5q35 0 59.5 -11.5
t41.5 -30t27.5 -41t16 -45.5t7 -43t1.5 -33q0 -52 -12 -90t-33 -63t-48.5 -37t-57.5 -12z" />
    <glyph glyph-name="Scaron" unicode="&#x160;" horiz-adv-x="635" 
d="M586 207q0 16 -4 35.5t-12 38.5t-20.5 36.5t-28.5 29.5q-14 10 -30 19t-38.5 17.5t-53.5 17t-75 19.5q-26 6 -54.5 14t-51.5 21.5t-38 34t-15 52.5q0 22 10 42.5t29.5 36t47 25t62.5 9.5q31 0 58.5 -7.5t46.5 -21.5q23 -17 32 -34t17 -39q6 -17 15 -32.5t32 -15.5
q20 0 31.5 15.5t11.5 31.5q0 17 -6.5 37t-16.5 37q-18 31 -44 51t-55.5 31t-60 15.5t-58.5 4.5q-48 0 -92.5 -12t-78 -36.5t-53.5 -61.5t-20 -86q0 -29 7 -51.5t17 -40t22 -29.5t21 -19q16 -13 32.5 -21.5t39.5 -16t55.5 -15.5t82.5 -19q19 -4 43.5 -11t47 -21t38 -36.5
t15.5 -57.5q0 -33 -15.5 -58t-40.5 -42t-57 -25.5t-65 -8.5q-48 0 -79 13.5t-50 32.5t-28 39t-13 32q-13 35 -21.5 49t-28.5 14q-18 0 -30 -12.5t-12 -28.5q0 -32 17 -71.5t47 -70.5q20 -21 45 -34.5t52 -21.5t54 -11t53 -3q65 0 114.5 17.5t82.5 47.5t50 70t17 85zM317 815
l-46 58q-17 20 -22 25t-13 6q-5 2 -18 2h-25q-4 0 -10 -1.5t-6 -6.5q0 -3 2.5 -6.5l12.5 -17.5l42 -53q13 -17 22.5 -28t17.5 -17t17.5 -8t23.5 -2q16 0 26.5 2t19 7.5t17.5 16.5t23 29l40 51q4 5 10.5 13.5t6.5 12.5t-4 6q-3 2 -9 2h-33q-9 0 -14.5 -1t-10.5 -5
t-10.5 -10.5t-14.5 -16.5z" />
    <glyph glyph-name="scaron" unicode="&#x161;" horiz-adv-x="510" 
d="M467 151q0 40 -18 66.5t-45.5 43.5t-60 27t-62.5 16q-45 10 -74 19.5t-45.5 20.5t-23 23.5t-6.5 27.5q0 35 32.5 54t80.5 19q50 0 77 -18t38 -42q10 -21 17.5 -30t25.5 -9q13 0 20 4.5t11 10.5t5 12t1 9q0 7 -7 27.5t-28 42t-59.5 38.5t-102.5 17q-38 0 -67 -6.5
t-51 -18.5q-36 -20 -56 -54t-20 -69q0 -31 13.5 -54.5t31.5 -38.5q11 -9 22.5 -16t29.5 -14t44.5 -15t66.5 -18q19 -5 40.5 -11t38.5 -16.5t28.5 -26t11.5 -39.5q0 -32 -30.5 -57.5t-90.5 -25.5t-90.5 24t-45.5 59q-6 14 -14.5 24t-25.5 10q-16 0 -27 -11t-11 -25
q0 -27 14.5 -50t29.5 -38q28 -27 66.5 -41t97.5 -14q73 0 116.5 19t66 45.5t29 54t6.5 44.5zM255 628l-46 58q-17 20 -22 25t-13 6q-5 2 -18 2h-25q-4 0 -10 -1.5t-6 -6.5q0 -3 2.5 -6.5l12.5 -17.5l42 -53q13 -17 22.5 -28t17.5 -17t17.5 -8t23.5 -2q16 0 26.5 2t19 7.5
t17.5 16.5t23 29l40 51q4 5 10.5 13.5t6.5 12.5t-4 6q-3 2 -9 2h-33q-9 0 -14.5 -1t-10.5 -5t-10.5 -10.5t-14.5 -16.5z" />
    <glyph glyph-name="Ydieresis" unicode="&#x178;" horiz-adv-x="615" 
d="M256 307v-240q0 -24 1.5 -40t11.5 -25q16 -14 35 -14q20 0 34 14q11 9 12.5 25t1.5 40v240l214 325q11 16 18 28.5t7 25.5q0 18 -13 30t-31 12q-9 0 -15 -2t-12 -7.5t-12.5 -15.5t-16.5 -25l-184 -286l-179 283q-10 16 -16.5 26t-12.5 16t-12.5 8.5t-15.5 2.5
q-23 0 -35 -14t-12 -30q0 -6 3.5 -16.5t22.5 -40.5zM272 827q0 20 -13.5 33.5t-33.5 13.5t-33.5 -13.5t-13.5 -33.5t13.5 -33.5t33.5 -13.5t33.5 13.5t13.5 33.5zM437 827q0 20 -13.5 33.5t-33.5 13.5t-33.5 -13.5t-13.5 -33.5t13.5 -33.5t33.5 -13.5t33.5 13.5t13.5 33.5z
" />
    <glyph glyph-name="Zcaron" unicode="&#x17d;" horiz-adv-x="625" 
d="M466 639l-419 -526q-20 -25 -27.5 -36.5t-7.5 -25.5q0 -12 6 -23t15 -18q10 -8 23 -9t44 -1h443q10 0 21.5 0.5t21 4t16 11t6.5 22.5t-6.5 23t-17 11.5t-23.5 4t-25 0.5h-402l425 533q14 18 20.5 29t6.5 26q0 19 -7.5 29.5t-18.5 15t-23.5 5.5t-21.5 1h-401
q-11 0 -22.5 -0.5t-20.5 -4.5t-15 -11.5t-6 -22.5q0 -14 6 -22t15 -11.5t20.5 -4t22.5 -0.5h352zM312 815l-46 58q-17 20 -22 25t-13 6q-5 2 -18 2h-25q-4 0 -10 -1.5t-6 -6.5q0 -3 2.5 -6.5l12.5 -17.5l42 -53q13 -17 22.5 -28t17.5 -17t17.5 -8t23.5 -2q16 0 26.5 2
t19 7.5t17.5 16.5t23 29l40 51q4 5 10.5 13.5t6.5 12.5t-4 6q-3 2 -9 2h-33q-9 0 -14.5 -1t-10.5 -5t-10.5 -10.5t-14.5 -16.5z" />
    <glyph glyph-name="zcaron" unicode="&#x17e;" horiz-adv-x="510" 
d="M132 68l304 356q19 22 26 32t7 22q0 15 -7 23t-18.5 12t-25.5 4.5t-29 0.5h-303q-10 0 -20 -0.5t-18.5 -3.5t-13.5 -10t-5 -20t6.5 -20t18 -10t27 -3.5t33.5 -0.5h239q-3 -6 -6 -11.5t-9 -14t-16.5 -20.5t-27.5 -31l-257 -287q-14 -16 -19.5 -27.5t-5.5 -20.5
q0 -16 8 -24t19.5 -11t22.5 -3h20h357q10 0 20.5 0.5t19 4t14 10.5t5.5 21q0 13 -5.5 19.5t-14 9.5t-19.5 3h-20h-307zM255 628l-46 58q-17 20 -22 25t-13 6q-5 2 -18 2h-25q-4 0 -10 -1.5t-6 -6.5q0 -3 2.5 -6.5l12.5 -17.5l42 -53q13 -17 22.5 -28t17.5 -17t17.5 -8
t23.5 -2q16 0 26.5 2t19 7.5t17.5 16.5t23 29l40 51q4 5 10.5 13.5t6.5 12.5t-4 6q-3 2 -9 2h-33q-9 0 -14.5 -1t-10.5 -5t-10.5 -10.5t-14.5 -16.5z" />
    <glyph glyph-name="florin" unicode="&#x192;" horiz-adv-x="552" 
d="M239 297l-63 -368q-3 -16 -6.5 -30t-10 -24t-18.5 -15.5t-32 -5.5q-16 0 -29 3q-11 2 -14 2.5t-5 0.5q-12 0 -18.5 -7t-9.5 -15.5t-4 -16t-1 -8.5q0 -11 6 -18t12 -9t17 -3.5t23.5 -3t25 -2t20.5 -0.5q61 0 88 32t38 95l69 393h55q10 0 19.5 0.5t16.5 4t11 11.5t4 22
q0 11 -4.5 17t-11.5 9t-15.5 3.5t-17.5 0.5h-45l34 191q8 44 20.5 61t47.5 17q11 0 18.5 -1.5t21.5 -3.5q3 -1 9 -1q4 0 9.5 1.5t11.5 7.5q4 3 8.5 17t4.5 23q0 18 -17 25q-5 2 -14 4.5t-21 4.5t-25 3.5t-25 1.5q-42 0 -67 -14.5t-39 -36.5t-20 -47.5t-10 -46.5l-36 -206
h-52q-11 0 -20 -0.5t-16 -4t-11 -11.5t-4 -22q0 -11 4.5 -17t11.5 -9t15.5 -3.5t17.5 -0.5h43z" />
    <glyph glyph-name="circumflex" unicode="&#x2c6;" horiz-adv-x="333" 
d="M167 677l46 -58q17 -20 22 -25t13 -6q5 -2 17 -2h26q4 0 10 1.5t6 6.5q0 3 -2 7t-13 17l-42 53q-14 17 -23 28t-17 17t-17.5 8t-23.5 2q-16 0 -26.5 -2t-19 -7.5t-17.5 -16.5t-23 -29l-40 -51q-4 -5 -10.5 -13.5t-6.5 -12.5t4 -6q3 -2 9 -2h33q9 0 15 1t11 4.5t10.5 10
t13.5 17.5z" />
    <glyph glyph-name="caron" unicode="&#x2c7;" horiz-adv-x="333" 
d="M166 628l-46 58q-17 20 -22 25t-13 6q-5 2 -18 2h-25q-4 0 -10 -1.5t-6 -6.5q0 -3 2.5 -6.5l12.5 -17.5l42 -53q13 -17 22.5 -28t17.5 -17t17.5 -8t23.5 -2q16 0 26.5 2t19 7.5t17.5 16.5t23 29l40 51q4 5 10.5 13.5t6.5 12.5t-4 6q-3 2 -9 2h-33q-9 0 -14.5 -1t-10.5 -5
t-10.5 -10.5t-14.5 -16.5z" />
    <glyph glyph-name="breve" unicode="&#x2d8;" horiz-adv-x="333" 
d="M170 644q-25 0 -51.5 11t-36.5 44q-5 15 -9.5 24t-18.5 9t-21 -9.5t-7 -17.5q0 -13 7.5 -32.5t25 -38t44.5 -31.5t66 -13t65 13.5t42.5 32t23.5 38t7 31.5q0 11 -8 19t-19 8q-9 0 -16.5 -6t-9.5 -16q-2 -8 -5.5 -19.5t-12.5 -22t-25 -17.5t-41 -7z" />
    <glyph glyph-name="dotaccent" unicode="&#x2d9;" horiz-adv-x="333" 
d="M214 640q0 20 -14 33.5t-33 13.5q-20 0 -33.5 -13.5t-13.5 -33.5t13.5 -33.5t33.5 -13.5q19 0 33 13.5t14 33.5z" />
    <glyph glyph-name="ring" unicode="&#x2da;" horiz-adv-x="333" 
d="M259 656q0 19 -7.5 36t-20 29.5t-29 20t-35.5 7.5t-36 -7t-29.5 -20t-20 -30t-7.5 -36t7 -35.5t19.5 -29t29.5 -20t36 -7.5t36 7.5t30 20t20 29t7 35.5zM219 656q0 -22 -15.5 -37t-37.5 -15q-21 0 -36.5 15t-15.5 37t15 37.5t37 15.5q23 0 38 -15.5t15 -37.5z" />
    <glyph glyph-name="ogonek" unicode="&#x2db;" horiz-adv-x="333" 
d="M132 11q-16 0 -22.5 -10.5t-10.5 -24.5q-2 -7 -6.5 -31t-4.5 -46q0 -21 7.5 -40.5t21 -34t33 -23.5t44.5 -9q3 0 20.5 1.5t37 6.5t35.5 14.5t16 25.5q0 8 -6 16.5t-17 8.5q-3 0 -11 -1.5t-17 -3t-17.5 -2.5t-11.5 -1q-37 0 -54.5 23t-17.5 52q0 5 1 14t3 21q1 4 2 9.5
t1 9.5q0 12 -8.5 18.5t-17.5 6.5z" />
    <glyph glyph-name="tilde" unicode="&#x2dc;" horiz-adv-x="333" 
d="M45 595q8 0 11.5 6.5t5.5 9.5q5 13 10.5 21.5t19.5 8.5q7 0 17.5 -2.5t21.5 -6t20 -7t14 -5.5q22 -8 35 -12t21 -6t12.5 -2.5t9.5 -0.5q21 0 35 8t22 19.5t11.5 24t3.5 20.5q0 15 -8.5 23.5t-16.5 8.5q-10 0 -14.5 -7.5t-7.5 -15.5q-5 -11 -11 -16.5t-19 -5.5
q-4 0 -8 0.5t-11.5 2.5t-20 6.5t-33.5 12.5q-10 5 -33.5 12.5t-45.5 7.5q-16 0 -28.5 -6.5t-21.5 -17t-13.5 -23.5t-4.5 -25q0 -18 9.5 -25.5t17.5 -7.5z" />
    <glyph glyph-name="hungarumlaut" unicode="&#x2dd;" horiz-adv-x="333" 
d="M232 623q-6 -11 -8 -16t-2 -10t5.5 -11.5t16.5 -6.5q9 0 18.5 5t22.5 16.5t31 30.5t43 46q17 18 20.5 23t3.5 10t-6.5 6.5t-23.5 1.5h-24q-17 0 -27 -0.5t-17 -5t-13 -14t-15 -26.5zM68 623q-6 -11 -8 -16t-2 -10t5.5 -11.5t16.5 -6.5q9 0 18.5 5t22.5 16.5t31 30.5
t43 46q17 18 20.5 23t3.5 10t-6.5 6.5t-23.5 1.5h-24q-17 0 -27 -0.5t-17 -5t-13 -14t-15 -26.5z" />
    <glyph glyph-name="endash" unicode="&#x2013;" horiz-adv-x="500" 
d="M-6 282v-64h512v64h-512z" />
    <glyph glyph-name="emdash" unicode="&#x2014;" horiz-adv-x="1000" 
d="M-6 282v-64h1012v64h-1012z" />
    <glyph glyph-name="quoteleft" unicode="&#x2018;" horiz-adv-x="240" 
d="M123 611q0 14 4 25t8.5 19t8.5 13t5 6q11 10 15.5 15.5t4.5 14.5t-6.5 17t-16.5 8q-15 0 -30 -12t-27 -32t-19.5 -47t-7.5 -57q0 -37 15.5 -59.5t45.5 -22.5q23 0 40.5 16t17.5 41q0 22 -15.5 38t-42.5 17z" />
    <glyph glyph-name="quoteright" unicode="&#x2019;" horiz-adv-x="240" 
d="M120 616q0 -14 -4 -25t-8.5 -19t-8.5 -13t-5 -6q-11 -10 -15.5 -15.5t-4.5 -14.5t6.5 -17t16.5 -8q15 0 30 12t27 32t19.5 47t7.5 57q0 37 -15.5 59.5t-45.5 22.5q-23 0 -40.5 -16t-17.5 -41q0 -22 15.5 -38t42.5 -17z" />
    <glyph glyph-name="quotesinglbase" unicode="&#x201a;" horiz-adv-x="240" 
d="M120 -12q0 -14 -4 -25t-8.5 -19t-8.5 -13t-5 -6q-11 -10 -15.5 -15.5t-4.5 -14.5t6.5 -17t16.5 -8q15 0 30 12t27 32t19.5 47t7.5 57q0 37 -15.5 59.5t-45.5 22.5q-23 0 -40.5 -16t-17.5 -41q0 -22 15.5 -38t42.5 -17z" />
    <glyph glyph-name="quotedblleft" unicode="&#x201c;" horiz-adv-x="417" 
d="M119 610q0 14 4 25t8.5 19t8.5 13t5 6q11 10 15.5 15.5t4.5 14.5t-6.5 17t-16.5 8q-15 0 -30 -12t-27 -32t-19.5 -47t-7.5 -57q0 -37 15.5 -59.5t45.5 -22.5q23 0 40.5 16t17.5 41q0 22 -15.5 38t-42.5 17zM305 610q0 14 4 25t8.5 19t8.5 13t5 6q11 10 15.5 15.5
t4.5 14.5t-6.5 17t-16.5 8q-15 0 -30 -12t-27 -32t-19.5 -47t-7.5 -57q0 -37 15.5 -59.5t45.5 -22.5q23 0 40.5 16t17.5 41q0 22 -15.5 38t-42.5 17z" />
    <glyph glyph-name="quotedblright" unicode="&#x201d;" horiz-adv-x="417" 
d="M299 616q0 -14 -4 -25t-8.5 -19t-8.5 -13t-5 -6q-11 -10 -15.5 -15.5t-4.5 -14.5t6.5 -17t16.5 -8q15 0 30 12t27 32t19.5 47t7.5 57q0 37 -15.5 59.5t-45.5 22.5q-23 0 -40.5 -16t-17.5 -41q0 -22 15.5 -38t42.5 -17zM113 616q0 -14 -4 -25t-8.5 -19t-8.5 -13t-5 -6
q-11 -10 -15.5 -15.5t-4.5 -14.5t6.5 -17t16.5 -8q15 0 30 12t27 32t19.5 47t7.5 57q0 37 -15.5 59.5t-45.5 22.5q-23 0 -40.5 -16t-17.5 -41q0 -22 15.5 -38t42.5 -17z" />
    <glyph glyph-name="quotedblbase" unicode="&#x201e;" horiz-adv-x="417" 
d="M114 -12q0 -14 -4 -25t-8.5 -19t-9 -13t-5.5 -6q-11 -10 -15.5 -15.5t-4.5 -14.5t6.5 -17t17.5 -8q14 0 29 12t27 32t19.5 47t7.5 57q0 37 -15.5 59.5t-45.5 22.5q-23 0 -40 -16t-17 -41q0 -22 15.5 -38t42.5 -17zM299 -12q0 -14 -4 -25t-8.5 -19t-8.5 -13t-5 -6
q-11 -10 -15.5 -15.5t-4.5 -14.5t6.5 -17t16.5 -8q15 0 30 12t27 32t19.5 47t7.5 57q0 37 -15.5 59.5t-45.5 22.5q-23 0 -40.5 -16t-17.5 -41q0 -22 15.5 -38t42.5 -17z" />
    <glyph glyph-name="dagger" unicode="&#x2020;" 
d="M240 425v-541q0 -12 0.5 -24.5t4.5 -22.5t12.5 -16.5t24.5 -6.5q11 0 18.5 4t12.5 9q8 8 9.5 21t1.5 36v541h149q10 0 20.5 0.5t19.5 4t14.5 10.5t5.5 21q0 13 -5.5 20.5t-14.5 11t-19.5 4t-20.5 0.5h-149v153q0 12 -0.5 24.5t-4.5 22.5t-12.5 16.5t-24.5 6.5
q-11 0 -18.5 -4t-12.5 -9q-8 -9 -9.5 -21.5t-1.5 -35.5v-153h-150q-11 0 -21.5 -0.5t-19 -4t-14 -11t-5.5 -20.5q0 -14 5.5 -21t14.5 -10.5t19.5 -4t20.5 -0.5h150z" />
    <glyph glyph-name="daggerdbl" unicode="&#x2021;" 
d="M240 14v-130q0 -23 1.5 -36t9.5 -21q13 -13 31 -13q11 0 18.5 4t12.5 9q8 8 9.5 21t1.5 36v130h148q10 0 21 0.5t20 4t14.5 10.5t5.5 21t-5.5 21.5t-14.5 10.5t-20 3.5t-21 0.5h-148v362h149q10 0 20.5 0.5t19.5 4t14.5 10.5t5.5 21q0 13 -5.5 20.5t-14.5 11t-19.5 4
t-20.5 0.5h-149v130q0 12 -0.5 24.5t-4.5 22.5t-12.5 16.5t-24.5 6.5q-11 0 -18.5 -4.5t-12.5 -8.5q-8 -8 -9.5 -21t-1.5 -36v-130h-150q-11 0 -21.5 -0.5t-19 -4t-14 -11t-5.5 -20.5q0 -14 5.5 -21t14.5 -10.5t19.5 -4t20.5 -0.5h150v-362h-149q-11 0 -21.5 -0.5
t-19.5 -3.5t-14.5 -10.5t-5.5 -21.5t5.5 -21t14.5 -10.5t20 -4t21 -0.5h149z" />
    <glyph glyph-name="bullet" unicode="&#x2022;" horiz-adv-x="354" 
d="M53 350q0 -26 10 -48t26.5 -39t39 -26.5t48.5 -9.5q25 0 48 9.5t39.5 26.5t26.5 39t10 48t-10 48.5t-26.5 39.5t-39.5 27t-48 10q-26 0 -48.5 -10t-39 -27t-26.5 -39.5t-10 -48.5z" />
    <glyph glyph-name="ellipsis" unicode="&#x2026;" horiz-adv-x="1000" 
d="M834 98q-23 0 -39 -16t-16 -39t16 -39t39 -16t39 16t16 39t-16 39t-39 16zM500 98q-23 0 -39 -16t-16 -39t16 -39t39 -16t39 16t16 39t-16 39t-39 16zM166 98q-23 0 -39 -16t-16 -39t16 -39t39 -16t39 16t16 39t-16 39t-39 16z" />
    <glyph glyph-name="perthousand" unicode="&#x2030;" horiz-adv-x="1063" 
d="M24 532q0 -16 2 -47t15.5 -62t43 -54t83.5 -23t83.5 23t43 54.5t16 64t2.5 52.5q0 32 -6.5 63.5t-22.5 57t-44.5 41.5t-71.5 16q-54 0 -83.5 -23t-43 -54t-15.5 -62t-2 -47zM750 180q0 -16 2 -47t15.5 -62t43 -54t83.5 -23t83.5 23t43 54.5t16 64t2.5 52.5
q0 32 -6.5 63.5t-22.5 57t-44.5 41.5t-71.5 16q-54 0 -83.5 -23t-43 -54t-15.5 -62t-2 -47zM407 180q0 -16 2 -47t15.5 -62t43 -54t83.5 -23t83.5 23t43 54.5t16 64t2.5 52.5q0 32 -6.5 63.5t-22.5 57t-44.5 41.5t-71.5 16q-54 0 -83.5 -23t-43 -54t-15.5 -62t-2 -47z
M814 180q0 66 17 102.5t64 36.5q45 0 62.5 -33.5t17.5 -100.5q0 -34 -3.5 -60.5t-12.5 -45t-24.5 -28.5t-39.5 -10q-47 0 -64 37t-17 102zM88 532q0 66 17 102.5t64 36.5q45 0 62.5 -33.5t17.5 -100.5q0 -34 -3.5 -60.5t-12.5 -45t-24.5 -28.5t-39.5 -10q-47 0 -64 37
t-17 102zM471 180q0 66 17 102.5t64 36.5q45 0 62.5 -33.5t17.5 -100.5q0 -34 -3.5 -60.5t-12.5 -45t-24.5 -28.5t-39.5 -10q-47 0 -64 37t-17 102zM108 23q-11 -14 -11 -26q0 -6 7.5 -14.5t19.5 -8.5q5 0 12 2.5t18 19.5l452 668q6 8 12.5 19t6.5 18q0 9 -7.5 17.5
t-18.5 8.5t-18 -8t-19 -25z" />
    <glyph glyph-name="guilsinglleft" unicode="&#x2039;" horiz-adv-x="354" 
d="M156 253l98 163q6 9 10 16.5t4 15.5q0 13 -9.5 22t-23.5 9q-5 0 -14 -4t-24 -27l-100 -158q-7 -11 -12.5 -20.5t-5.5 -17.5q0 -6 6 -16l12 -20l99 -156q15 -23 23.5 -28t17.5 -5q12 0 21.5 9t9.5 21q0 8 -4 16t-8 15z" />
    <glyph glyph-name="guilsinglright" unicode="&#x203a;" horiz-adv-x="354" 
d="M198 253l-100 -165q-4 -7 -8 -15t-4 -16q0 -12 9.5 -21t21.5 -9q9 0 17.5 5t23.5 28l99 156l12 20t6 16q0 8 -5.5 17.5t-12.5 20.5l-100 158q-15 23 -24 27t-14 4q-14 0 -23.5 -9t-9.5 -22q0 -8 4.5 -15.5t9.5 -16.5z" />
    <glyph glyph-name="trademark" unicode="&#x2122;" horiz-adv-x="1000" 
d="M239 318h66v339h130v59h-325v-59h129v-339zM480 318h61v339l107 -339h60l102 334v-334h61v398h-96l-97 -318l-100 318h-98v-398z" />
    <glyph glyph-name="minus" unicode="&#x2212;" horiz-adv-x="583" 
d="M529 312v82h-474v-82h474z" />
    <glyph glyph-name="fraction" unicode="&#x2215;" horiz-adv-x="167" 
d="M-169 23q-11 -14 -11 -26q0 -6 7.5 -14.5t19.5 -8.5q5 0 12 2.5t18 19.5l452 668q6 8 12.5 19t6.5 18q0 9 -7.5 17.5t-18.5 8.5t-18 -8t-19 -25z" />
    <glyph glyph-name="fi" unicode="&#xfb01;" horiz-adv-x="531" 
d="M460 665q0 20 -14 34t-34 14t-34.5 -14t-14.5 -34t14.5 -34.5t34.5 -14.5t34 14.5t14 34.5zM93 518h-45q-4 0 -12 -0.5t-16.5 -3.5t-14.5 -9t-6 -18t6 -19t14 -10t15.5 -3.5t11.5 -0.5h47v-395q0 -22 1.5 -36.5t10.5 -22.5q13 -12 32 -12q11 0 18 3.5t12 8.5q9 8 11 22.5
t2 36.5v395h55q7 0 16 0.5t17 3.5t13.5 10t5.5 19t-5.5 18t-13 9t-17 3.5t-16.5 0.5h-55v41q0 23 2 41.5t10 31t23 19.5t41 7q2 0 8.5 -1t14 -1.5t14 -1.5t9.5 -1q12 0 20.5 9.5t8.5 23.5q0 16 -9 22.5t-13 8.5q-11 4 -31 7.5t-43 3.5q-28 0 -62 -10t-57 -41
q-13 -17 -18 -44t-5 -66v-49zM456 459q0 11 -0.5 23.5t-5 23t-13.5 17.5t-25 7q-10 0 -18 -4t-14 -9q-8 -9 -9.5 -22t-1.5 -36v-400q0 -12 0.5 -24.5t4.5 -23t12.5 -17t24.5 -6.5q13 0 25 7t16 21q2 5 3 13.5t1 29.5v400z" />
    <glyph glyph-name="fl" unicode="&#xfb02;" horiz-adv-x="531" 
d="M457 656q0 23 -1.5 36.5t-9.5 22.5q-15 13 -33 13q-11 0 -18.5 -4.5t-12.5 -9.5q-9 -8 -10.5 -21.5t-1.5 -36.5v-597q0 -12 0.5 -25t5 -23t13 -16.5t25.5 -6.5q11 0 18.5 4t13.5 9q8 9 9.5 22t1.5 36v597zM93 518h-45q-5 0 -13 -0.5t-16.5 -3.5t-14.5 -9t-6 -18t6 -19
t14 -10t16 -3.5t12 -0.5h47v-395q0 -22 1.5 -36t10.5 -23q12 -12 31 -12q11 0 18.5 3.5t12.5 8.5q9 8 11 22.5t2 36.5v395h54q7 0 16 0.5t17.5 3.5t14 10t5.5 19t-5.5 18t-13.5 9t-17.5 3.5t-16.5 0.5h-54v41q0 23 2 41.5t10 31t22.5 19.5t40.5 7q3 0 9.5 -1t14 -1.5
t14 -1.5t9.5 -1q12 0 20.5 9.5t8.5 23.5q0 16 -9.5 22.5t-13.5 8.5q-10 4 -30 7.5t-43 3.5q-14 0 -30 -2t-32.5 -7t-31.5 -15.5t-26 -26.5q-12 -17 -17 -44t-5 -66v-49z" />
    </font>
</defs>
</svg>
